[ create a new paste ] login | about

Link: http://codepad.org/9iCnCLBk    [ raw code | fork ]

Plain Text, pasted on Apr 20:
foobar2000 1.4.1 / Dynamic Range Meter 1.1.1
log date: 2019-04-20 08:06:31

--------------------------------------------------------------------------------
Analyzed: Lou Donaldson / Blues Walk
--------------------------------------------------------------------------------

DR         Peak         RMS     Duration Track
--------------------------------------------------------------------------------
DR14      -2.25 dB   -20.13 dB      6:46 01-Blues Walk
DR13      -1.58 dB   -17.88 dB      5:54 02-Move
DR14      -1.99 dB   -17.34 dB      5:54 03-The Masquerade Is Over
DR14      -0.68 dB   -18.11 dB      5:33 04-Play Ray
DR13      -2.54 dB   -19.57 dB      4:56 05-Autumn Nocturne
DR13      -2.05 dB   -18.50 dB      5:20 06-Callin' All Cats
--------------------------------------------------------------------------------

Number of tracks:  6
Official DR value: DR13

Samplerate:        88200 Hz
Channels:          2
Bits per sample:   24
Bitrate:           2607 kbps
Codec:             FLAC
================================================================================




Create a new paste based on this one


Comments: