[ create a new paste ] login | about

Link: http://codepad.org/9lwlF17j    [ raw code | fork ]

Plain Text, pasted on Jul 17:
Exact Audio Copy V0.99 prebeta 5 from 4. May 2009

EAC extraction logfile from 17. July 2009, 10:09

Various / Bridget Jones The Edge Of Reason

Used drive  : MATSHITADVD-RAM UJ-850S   Adapter: 1  ID: 0

Read mode               : Secure
Utilize accurate stream : Yes
Defeat audio cache      : Yes
Make use of C2 pointers : No

Read offset correction                      : 102
Overread into Lead-In and Lead-Out          : No
Fill up missing offset samples with silence : Yes
Delete leading and trailing silent blocks   : No
Null samples used in CRC calculations       : Yes
Used interface                              : Installed external ASPI interface
Gap handling                                : Appended to previous track

Used output format              : User Defined Encoder
Selected bitrate                : 320 kBit/s
Quality                         : High
Add ID3 tag                     : No
Command line compressor         : C:\Program Files\Exact Audio Copy\Flac\flac.exe
Additional command line options : -V -8 -T "artist=%a" -T "title=%t" -T "album=%g" -T "date=%y" -T "tracknumber=%n" -T "genre=%m" %s 


TOC of the extracted CD

     Track |   Start  |  Length  | Start sector | End sector 
    ---------------------------------------------------------
        1  |  0:00.00 |  4:05.01 |         0    |    18375   
        2  |  4:05.01 |  3:38.00 |     18376    |    34725   
        3  |  7:43.01 |  3:49.48 |     34726    |    51948   
        4  | 11:32.49 |  3:50.57 |     51949    |    69255   
        5  | 15:23.31 |  3:44.68 |     69256    |    86123   
        6  | 19:08.24 |  4:00.61 |     86124    |   104184   
        7  | 23:09.10 |  3:22.55 |    104185    |   119389   
        8  | 26:31.65 |  3:24.37 |    119390    |   134726   
        9  | 29:56.27 |  3:56.21 |    134727    |   152447   
       10  | 33:52.48 |  5:39.21 |    152448    |   177893   
       11  | 39:31.69 |  6:02.47 |    177894    |   205090   
       12  | 45:34.41 |  3:43.48 |    205091    |   221863   
       13  | 49:18.14 |  4:32.08 |    221864    |   242271   
       14  | 53:50.22 |  3:38.10 |    242272    |   258631   
       15  | 57:28.32 |  3:32.29 |    258632    |   274560   
       16  | 61:00.61 |  3:46.39 |    274561    |   291549   
       17  | 64:47.25 |  2:16.40 |    291550    |   301789   
       18  | 67:03.65 |  3:42.32 |    301790    |   318471   
       19  | 70:46.22 |  3:53.25 |    318472    |   335971   
       20  | 74:39.47 |  2:11.30 |    335972    |   345826   


Track  1

     Filename D:\Rip\FLAC\VA-Bridget Jones The Edge Of Reason-2004-DJ_AliuX\01 - Will Young - Your Love Is King.wav

     Pre-gap length  0:00:02.00

     Peak level 99.8 %
     Track quality 100.0 %
     Test CRC 92EC651D
     Copy CRC 92EC651D
     Accurately ripped (confidence 18)  [DEC3776B]
     Copy OK

Track  2

     Filename D:\Rip\FLAC\VA-Bridget Jones The Edge Of Reason-2004-DJ_AliuX\02 - Jamelia - Stop.wav

     Peak level 98.0 %
     Track quality 100.0 %
     Test CRC F8AD7115
     Copy CRC F8AD7115
     Accurately ripped (confidence 19)  [D744D9F3]
     Copy OK

Track  3

     Filename D:\Rip\FLAC\VA-Bridget Jones The Edge Of Reason-2004-DJ_AliuX\03 - Kylie Minogue - Can't Get You Ouy Of My Head.wav

     Peak level 99.9 %
     Track quality 100.0 %
     Test CRC 9839FDEC
     Copy CRC 9839FDEC
     Accurately ripped (confidence 18)  [3B59DD96]
     Copy OK

Track  4

     Filename D:\Rip\FLAC\VA-Bridget Jones The Edge Of Reason-2004-DJ_AliuX\04 - Joss Stone - Super Duper Love.wav

     Peak level 100.0 %
     Track quality 99.9 %
     Test CRC 12A716E5
     Copy CRC 12A716E5
     Accurately ripped (confidence 18)  [584AD888]
     Copy OK

Track  5

     Filename D:\Rip\FLAC\VA-Bridget Jones The Edge Of Reason-2004-DJ_AliuX\05 - Mary J. Blige - Sorry Seems To Be The Hardest Word.wav

     Peak level 97.5 %
     Track quality 100.0 %
     Test CRC 5F2DDE6F
     Copy CRC 5F2DDE6F
     Accurately ripped (confidence 21)  [2B29F6B6]
     Copy OK

Track  6

     Filename D:\Rip\FLAC\VA-Bridget Jones The Edge Of Reason-2004-DJ_AliuX\06 - Robbie Williams - Misunderstood.wav

     Peak level 98.8 %
     Track quality 100.0 %
     Test CRC CC685D58
     Copy CRC CC685D58
     Accurately ripped (confidence 18)  [EF02A2BF]
     Copy OK

Track  7

     Filename D:\Rip\FLAC\VA-Bridget Jones The Edge Of Reason-2004-DJ_AliuX\07 - Jamie Cullum - Everlasting Love.wav

     Peak level 99.9 %
     Track quality 100.0 %
     Test CRC 60075CFC
     Copy CRC 60075CFC
     Accurately ripped (confidence 19)  [F559C38D]
     Copy OK

Track  8

     Filename D:\Rip\FLAC\VA-Bridget Jones The Edge Of Reason-2004-DJ_AliuX\08 - Barry White - You're The First, The Last, My Everything.wav

     Peak level 99.9 %
     Track quality 100.0 %
     Test CRC 1E8D7343
     Copy CRC 1E8D7343
     Accurately ripped (confidence 19)  [0F55FAEB]
     Copy OK

Track  9

     Filename D:\Rip\FLAC\VA-Bridget Jones The Edge Of Reason-2004-DJ_AliuX\09 - Beyonce Feat. Jay-Z - Crazy In Love.wav

     Peak level 100.0 %
     Track quality 100.0 %
     Test CRC E88E7A48
     Copy CRC E88E7A48
     Accurately ripped (confidence 18)  [D1681F48]
     Copy OK

Track 10

     Filename D:\Rip\FLAC\VA-Bridget Jones The Edge Of Reason-2004-DJ_AliuX\10 - Rufus Wainwright Feat. Dido - I Eat Dinner.wav

     Peak level 98.8 %
     Track quality 100.0 %
     Test CRC 80F93EE0
     Copy CRC 80F93EE0
     Accurately ripped (confidence 20)  [F3B61D18]
     Copy OK

Track 11

     Filename D:\Rip\FLAC\VA-Bridget Jones The Edge Of Reason-2004-DJ_AliuX\11 - 10cc - I'm Not In Love.wav

     Peak level 99.9 %
     Track quality 99.9 %
     Test CRC B823A768
     Copy CRC B823A768
     Accurately ripped (confidence 18)  [C18A4463]
     Copy OK

Track 12

     Filename D:\Rip\FLAC\VA-Bridget Jones The Edge Of Reason-2004-DJ_AliuX\12 - Carly Simon - Nobody Does It Better.wav

     Peak level 100.0 %
     Track quality 100.0 %
     Test CRC E31555E5
     Copy CRC E31555E5
     Accurately ripped (confidence 21)  [A4B2BB28]
     Copy OK

Track 13

     Filename D:\Rip\FLAC\VA-Bridget Jones The Edge Of Reason-2004-DJ_AliuX\13 - Primal Scream - Loaded.wav

     Peak level 99.9 %
     Track quality 100.0 %
     Test CRC B433CBE1
     Copy CRC B433CBE1
     Accurately ripped (confidence 18)  [2CFBAE75]
     Copy OK

Track 14

     Filename D:\Rip\FLAC\VA-Bridget Jones The Edge Of Reason-2004-DJ_AliuX\14 - The Darkness - I Believe In A Thing Called Love.wav

     Peak level 77.8 %
     Track quality 99.9 %
     Test CRC 58BE7D86
     Copy CRC 58BE7D86
     Accurately ripped (confidence 18)  [13F08423]
     Copy OK

Track 15

     Filename D:\Rip\FLAC\VA-Bridget Jones The Edge Of Reason-2004-DJ_AliuX\15 - Amy Winehouse - Will You Still Love Me Tomorrow .wav

     Peak level 99.9 %
     Track quality 100.0 %
     Test CRC B468C6E2
     Copy CRC B468C6E2
     Accurately ripped (confidence 19)  [07B78F1C]
     Copy OK

Track 16

     Filename D:\Rip\FLAC\VA-Bridget Jones The Edge Of Reason-2004-DJ_AliuX\16 - Minnie Riperton - Lovin' You.wav

     Peak level 99.8 %
     Track quality 100.0 %
     Test CRC 70354DF7
     Copy CRC 70354DF7
     Accurately ripped (confidence 18)  [82B24EF4]
     Copy OK

Track 17

     Filename D:\Rip\FLAC\VA-Bridget Jones The Edge Of Reason-2004-DJ_AliuX\17 - Aretha Franklin - Think.wav

     Peak level 99.9 %
     Track quality 100.0 %
     Test CRC F497A671
     Copy CRC F497A671
     Accurately ripped (confidence 17)  [BC9E5C42]
     Copy OK

Track 18

     Filename D:\Rip\FLAC\VA-Bridget Jones The Edge Of Reason-2004-DJ_AliuX\18 - Leona Naess - Calling.wav

     Peak level 100.0 %
     Track quality 100.0 %
     Test CRC 91F995A2
     Copy CRC 91F995A2
     Accurately ripped (confidence 17)  [6E783E13]
     Copy OK

Track 19

     Filename D:\Rip\FLAC\VA-Bridget Jones The Edge Of Reason-2004-DJ_AliuX\19 - Sting Feat. Annie Lennox - We'll Be Together.wav

     Peak level 99.7 %
     Track quality 100.0 %
     Test CRC 685FED9E
     Copy CRC 685FED9E
     Accurately ripped (confidence 17)  [7F0C179D]
     Copy OK

Track 20

     Filename D:\Rip\FLAC\VA-Bridget Jones The Edge Of Reason-2004-DJ_AliuX\20 - Harry Gregson-Williams - Bridget's Theme.wav

     Peak level 98.8 %
     Track quality 100.0 %
     Test CRC E9A90816
     Copy CRC E9A90816
     Accurately ripped (confidence 16)  [6B8F3511]
     Copy OK


All tracks accurately ripped

No errors occurred

End of status report



Create a new paste based on this one


Comments: