[ create a new paste ] login | about

Link: http://codepad.org/9qMfYRuT    [ raw code | fork ]

Plain Text, pasted on Nov 23:
foobar2000 1.2.8 / Dynamic Range Meter 1.1.1
log date: 2013-10-28 16:06:39

--------------------------------------------------------------------------------
Analyzed: Aerosmith / The RS500 Super Audio CD Sampler (Hybrid SACD) (1)
          Billy Joel / The RS500 Super Audio CD Sampler (Hybrid SACD) (2)
          Bob Dylan / The RS500 Super Audio CD Sampler (Hybrid SACD) (3)
          Elton John / The RS500 Super Audio CD Sampler (Hybrid SACD) (4)
          Herbie Hancock / The RS500 Super Audio CD Sampler (Hybrid SACD) (5)
          Miles Davis / The RS500 Super Audio CD Sampler (Hybrid SACD) (6)
          Norah Jones / The RS500 Super Audio CD Sampler (Hybrid SACD) (7)
          Pink Floyd / The RS500 Super Audio CD Sampler (Hybrid SACD) (8)
          The Who / The RS500 Super Audio CD Sampler (Hybrid SACD) (9)
--------------------------------------------------------------------------------

DR         Peak         RMS     Duration Track
--------------------------------------------------------------------------------
DR12      -0.01 dB   -17.15 dB      4:36 09-Sweet Emotion
DR8       -7.30 dB   -18.87 dB      3:32 07-Movin' Out (Anthony's Song)
DR13      -0.40 dB   -20.45 dB      4:19 01-Simple Twist Of Fate
DR13      -2.86 dB   -18.37 dB      3:17 06-Goodbye Yellow Brick Road
DR14      -2.59 dB   -21.52 dB      6:36 04-Watermelon Man
DR12      -2.45 dB   -28.11 dB      5:38 08-Blue In Green
DR14      -3.18 dB   -24.58 dB      3:19 05-Come Away With Me
DR12      -0.05 dB   -17.76 dB      6:56 02-Money
DR12      -1.27 dB   -17.37 dB      3:20 03-Pinball Wizard
--------------------------------------------------------------------------------

Number of tracks:  9
Official DR value: DR12

Samplerate:        88200 Hz
Channels:          6
Bits per sample:   24
Bitrate:           7632 kbps
Codec:             FLAC
================================================================================




Create a new paste based on this one


Comments: