[ create a new paste ] login | about

Link: http://codepad.org/9qZFLAmW    [ raw code | fork ]

Plain Text, pasted on Dec 15:
foobar2000 1.4.1 / Dynamic Range Meter 1.1.1
log date: 2018-12-14 15:58:16

--------------------------------------------------------------------------------
Analyzed: The Who / Quadrophenia DVD
--------------------------------------------------------------------------------

DR         Peak         RMS     Duration Track
--------------------------------------------------------------------------------
DR13     -10.52 dB   -31.59 dB      2:10 01-I Am The Sea
DR11      -0.10 dB   -17.07 dB      3:21 02-The Real Me
DR14      -0.12 dB   -20.08 dB      6:45 03-Quadrophenia
DR13      -0.12 dB   -17.50 dB      6:22 04-I've Had Enough
DR13      -0.12 dB   -17.49 dB      5:17 05-5.15
DR12      -0.10 dB   -17.51 dB      8:04 06-Doctor Jimmy
DR11      -0.12 dB   -17.50 dB      6:38 07-The Rock
DR12      -0.12 dB   -16.23 dB      5:57 08-Love Reign O'er Me
--------------------------------------------------------------------------------

Number of tracks:  8
Official DR value: DR13

Samplerate:        96000 Hz
Channels:          6
Bits per sample:   24
Bitrate:           7350 kbps
Codec:             FLAC
================================================================================




Create a new paste based on this one


Comments: