[ create a new paste ] login | about

Link: http://codepad.org/9rVtoxIb    [ raw code | fork ]

Plain Text, pasted on Jun 7:
foobar2000 1.1.11 / Dynamic Range Meter 1.1.1
log date: 2012-05-17 15:58:23

--------------------------------------------------------------------------------
Analyzed: Stanislaw Skrowaczewski & The Minnesota Orchestra / Ravel: Daphnis Et Chloé (Ballet Suites Nos. 1&2), Ma Mère l'Oye (Complete Ballet Version), Valse Nobles Et Sentimentales (2005 MFSL Hybrid SACD)
--------------------------------------------------------------------------------

DR         Peak         RMS     Duration Track
--------------------------------------------------------------------------------
DR17      -1.12 dB   -25.39 dB     13:36 01-Daphnis Et Chloé (Ballet) - Suite No. 1
DR17      -0.01 dB   -23.81 dB     17:17 02-Daphnis Et Chloé (Ballet) - Interlude - Suite No. 2
DR19      -3.24 dB   -29.52 dB     30:03 03-Ma Mère l'Oye
DR19      -0.16 dB   -27.16 dB     17:52 04-Valse Nobles Et Sentimentales
--------------------------------------------------------------------------------

Number of tracks:  4
Official DR value: DR18

Samplerate:        88200 Hz
Channels:          2
Bits per sample:   24
Bitrate:           2267 kbps
Codec:             FLAC
================================================================================




Create a new paste based on this one


Comments: