[ create a new paste ] login | about

Link: http://codepad.org/9tUt1dLV    [ raw code | fork ]

Plain Text, pasted on Mar 28:
foobar2000 1.5 / Dynamic Range Meter 1.1.1
log date: 2020-03-28 19:53:58

--------------------------------------------------------------------------------
Analyzed: The Dave Brubeck Quartet / Concord On A Summer Night
--------------------------------------------------------------------------------

DR         Peak         RMS     Duration Track
--------------------------------------------------------------------------------
DR15      -0.01 dB   -23.17 dB      6:03 01-Benjamin
DR15      -7.51 dB   -32.35 dB      9:00 02-Koto Song
DR15      -1.84 dB   -25.15 dB      7:23 03-Black And Blue
DR15      -4.21 dB   -28.26 dB      7:59 04-Softly, William, Softly
DR15      -1.26 dB   -24.35 dB      9:11 05-Take Five
--------------------------------------------------------------------------------

Number of tracks:  5
Official DR value: DR15

Samplerate:        88200 Hz
Channels:          6
Bits per sample:   24
Bitrate:           7107 kbps
Codec:             FLAC
================================================================================




Create a new paste based on this one


Comments: