[ create a new paste ] login | about

Link: http://codepad.org/9tzkUbWW    [ raw code | fork ]

Plain Text, pasted on Nov 20:
foobar2000 1.3 / Dynamic Range Meter 1.1.1
log date: 2014-03-25 14:55:38

--------------------------------------------------------------------------------
Analyzed: Sam Cooke / Tribute To The Lady (Hybrid SACD)
--------------------------------------------------------------------------------

DR         Peak         RMS     Duration Track
--------------------------------------------------------------------------------
DR13      -2.20 dB   -17.92 dB      2:08 01-Good Morning, Heartache
DR12      -1.64 dB   -18.07 dB      1:54 02-She's Funny That Way
DR13      -2.21 dB   -18.46 dB      2:34 03-I Gotta Right To Sing The Blues
DR13      -0.01 dB   -15.76 dB      2:27 04-T'Aint Nobody's Bizness (If I Do)
DR13      -0.65 dB   -16.79 dB      2:32 05-Comes Love
DR13      -2.41 dB   -18.89 dB      2:30 06-Lover Girl (Man)
DR13      -0.91 dB   -16.28 dB      2:23 07-Let's Call The Whole Thing Off
DR11      -3.95 dB   -17.04 dB      2:13 08-Lover Come Back To Me
DR14      -2.04 dB   -19.74 dB      2:27 09-Solitude
DR13      -2.07 dB   -18.51 dB      2:33 10-They Can't Take That Away From Me
DR13      -3.66 dB   -20.23 dB      2:35 11-Crazy She Calls Me
DR11      -4.82 dB   -19.67 dB      2:36 12-God Bless The Child
DR9       -6.50 dB   -18.82 dB      2:52 13-Blue Moon
DR13      -2.45 dB   -18.24 dB      2:16 14-I Cover The Waterfront
DR11      -3.40 dB   -16.86 dB      3:23 15-Ac-cent-tchu-ate The Positive
DR11      -4.17 dB   -20.12 dB      2:34 16-The Gypsy
DR10      -4.25 dB   -17.55 dB      2:26 17-All Of My Life
DR13      -3.56 dB   -19.71 dB      3:22 18-Today I Sing The Blues
DR11      -2.58 dB   -17.11 dB      1:54 19-Oh Look At Me Now
DR11      -2.60 dB   -17.79 dB      2:24 20-My Foolish Heart
DR10      -3.87 dB   -18.07 dB      2:41 21-When I Fall In Love
--------------------------------------------------------------------------------

Number of tracks:  21
Official DR value: DR12

Samplerate:        88200 Hz
Channels:          2
Bits per sample:   24
Bitrate:           1411 kbps
Codec:             FLAC
================================================================================




Create a new paste based on this one


Comments: