[ create a new paste ] login | about

Link: http://codepad.org/9yELp9C8    [ raw code | fork ]

Plain Text, pasted on Nov 22:
Exact Audio Copy V1.3 from 2. September 2016

EAC extraction logfile from 20. November 2018, 9:03

The Beatles / The White Album CD4 Sessions

Used drive  : PLEXTOR BD-R  PX-B950SA   Adapter: 1  ID: 1

Read mode               : Secure
Utilize accurate stream : Yes
Defeat audio cache      : Yes
Make use of C2 pointers : No

Read offset correction                      : 6
Overread into Lead-In and Lead-Out          : No
Fill up missing offset samples with silence : Yes
Delete leading and trailing silent blocks   : No
Null samples used in CRC calculations       : Yes
Used interface                              : Native Win32 interface for Win NT & 2000

Used output format : Internal WAV Routines
Sample format      : 44.100 Hz; 16 Bit; Stereo


TOC of the extracted CD

     Track |   Start  |  Length  | Start sector | End sector 
    ---------------------------------------------------------
        1  |  0:00.00 | 10:28.68 |         0    |    47167   
        2  | 10:28.68 |  5:05.73 |     47168    |    70115   
        3  | 15:34.66 |  2:15.73 |     70116    |    80313   
        4  | 17:50.64 |  2:43.00 |     80314    |    92538   
        5  | 20:33.64 |  0:39.05 |     92539    |    95468   
        6  | 21:12.69 |  2:31.01 |     95469    |   106794   
        7  | 23:43.70 |  3:46.23 |    106795    |   123767   
        8  | 27:30.18 |  2:54.14 |    123768    |   136831   
        9  | 30:24.32 |  2:16.20 |    136832    |   147051   
       10  | 32:40.52 |  3:25.00 |    147052    |   162426   
       11  | 36:05.52 |  3:02.58 |    162427    |   176134   
       12  | 39:08.35 | 12:53.39 |    176135    |   234148   


Range status and errors

Selected range

     Filename C:\The Beatles\1968 The White Album (7-Disc Box Set UMC 2018)\CD4 Sessions\The Beatles - The White Album CD4 Sessions.wav

     Peak level 97.7 %
     Extraction speed 3.2 X
     Range quality 100.0 %
     Test CRC 679F61E5
     Copy CRC 679F61E5
     Copy OK

No errors occurred

 
AccurateRip summary
 
Track  1  accurately ripped (confidence 7)  [24B62FEB]  (AR v2)
Track  2  accurately ripped (confidence 7)  [A453EC52]  (AR v2)
Track  3  accurately ripped (confidence 7)  [101D004E]  (AR v2)
Track  4  accurately ripped (confidence 7)  [B274CA7D]  (AR v2)
Track  5  accurately ripped (confidence 7)  [588C7DD4]  (AR v2)
Track  6  accurately ripped (confidence 7)  [F2E81084]  (AR v2)
Track  7  accurately ripped (confidence 7)  [0D2240DC]  (AR v2)
Track  8  accurately ripped (confidence 7)  [DE369B23]  (AR v2)
Track  9  accurately ripped (confidence 7)  [7A7ED83C]  (AR v2)
Track 10  accurately ripped (confidence 7)  [8EE0911D]  (AR v2)
Track 11  accurately ripped (confidence 7)  [CE4DC1A3]  (AR v2)
Track 12  accurately ripped (confidence 8)  [3DBD5195]  (AR v2)
 
All tracks accurately ripped

End of status report

---- CUETools DB Plugin V2.1.6

[CTDB TOCID: TUtpnGaYLf8ULi3ywg37KyQFLeM-] found
Submit result: TUtpnGaYLf8ULi3ywg37KyQFLeM- has been confirmed
Track | CTDB Status
  1   | (254/254) Accurately ripped
  2   | (254/254) Accurately ripped
  3   | (254/254) Accurately ripped
  4   | (254/254) Accurately ripped
  5   | (254/254) Accurately ripped
  6   | (254/254) Accurately ripped
  7   | (254/254) Accurately ripped
  8   | (254/254) Accurately ripped
  9   | (254/254) Accurately ripped
 10   | (254/254) Accurately ripped
 11   | (254/254) Accurately ripped
 12   | (249/254) Accurately ripped


==== Log checksum F87D60596D9778E22AB20B791A30FAD044156CA8AF9C3778AFCE02A0556F9028 ====



Create a new paste based on this one


Comments: