[ create a new paste ] login | about

Link: http://codepad.org/A01Kmc00    [ raw code | fork ]

Plain Text, pasted on Apr 15:
foobar2000 1.3.14 / Dynamic Range Meter 1.1.1
log date: 2017-04-13 23:15:34

--------------------------------------------------------------------------------
Analyzed: Bob Dylan / Bootleg Series Vol 6 - Live 1964 (2016 AF Hybrid SACD - Disc 1)
--------------------------------------------------------------------------------

DR         Peak         RMS     Duration Track
--------------------------------------------------------------------------------
DR13      -2.02 dB   -19.39 dB      3:58 01-The Times They Are a-Changin'
DR14      -2.03 dB   -20.09 dB      2:55 02-Spanish Harlem Incident
DR13      -2.90 dB   -20.34 dB      4:22 03-Talkin' John Birch Paranoid Blues
DR14      -2.62 dB   -21.36 dB      5:13 04-To Ramona
DR15      -2.05 dB   -23.32 dB      5:32 05-Who Killed Davey Moore?
DR15      -3.36 dB   -23.22 dB      8:37 06-Gates of Eden
DR14      -2.54 dB   -20.26 dB      3:56 07-If You Gotta Go, Go Now (Or Else You Got to Stay All Night)
DR16      -2.17 dB   -22.82 dB      9:56 08-It's Alright, Ma (I'm Only Bleeding)
DR15      -2.02 dB   -22.03 dB      5:25 09-I Don't Believe You (She Acts Like We Never Have Met)
DR16      -2.01 dB   -21.98 dB      6:38 10-Mr Tambourine Man
DR14      -2.09 dB   -21.46 dB      7:49 11-A Hard Rain's a-Gonna Fall
--------------------------------------------------------------------------------

Number of tracks:  11
Official DR value: DR15

Samplerate:        88200 Hz
Channels:          5
Bits per sample:   24
Bitrate:           6386 kbps
Codec:             FLAC
================================================================================



foobar2000 1.3.14 / Dynamic Range Meter 1.1.1
log date: 2017-04-13 23:38:44

--------------------------------------------------------------------------------
Analyzed: Bob Dylan feat Joan Baez / Bootleg Series Vol 6 Disc 2 (1-4)
          Bob Dylan / Bootleg Series Vol 6 Disc 2 (5-8)
--------------------------------------------------------------------------------

DR         Peak         RMS     Duration Track
--------------------------------------------------------------------------------
DR12      -2.02 dB   -19.20 dB      3:42 04-Mama, You Been on My Mind
DR13      -2.27 dB   -19.45 dB      4:06 05-Silver Dagger
DR13      -2.00 dB   -18.60 dB      6:09 06-With God on Our Side
DR13      -2.03 dB   -19.59 dB      5:21 07-It Ain't Me, Babe
DR14      -1.99 dB   -19.86 dB      5:44 01-Talkin' World War III Blues
DR14      -2.90 dB   -21.69 dB      4:13 02-Don't Think Twice, It's All Right
DR15      -2.00 dB   -21.22 dB      7:07 03-The Lonesome Death of Hattie Carroll
DR13      -2.00 dB   -19.09 dB      4:02 08-All I Really Want to Do
--------------------------------------------------------------------------------

Number of tracks:  8
Official DR value: DR13

Samplerate:        88200 Hz
Channels:          5
Bits per sample:   24
Bitrate:           6607 kbps
Codec:             FLAC
================================================================================




Create a new paste based on this one


Comments: