[ create a new paste ] login | about

Link: http://codepad.org/A27AKBD7    [ raw code | fork ]

Plain Text, pasted on Nov 27:
foobar2000 1.3.17 / Dynamic Range Meter 1.1.1
log date: 2018-11-26 15:50:34

--------------------------------------------------------------------------------
Analyzed: Bon Jovi / This Left Feels Right
--------------------------------------------------------------------------------

DR         Peak         RMS     Duration Track
--------------------------------------------------------------------------------
DR12      -5.42 dB   -19.68 dB      3:43 01-Wanted Dead Or Alive
DR14      -5.59 dB   -20.66 dB      4:14 02-Livin' On A Prayer
DR14      -5.43 dB   -20.31 dB      4:25 03-Bad Medicine
DR12      -5.79 dB   -20.13 dB      3:42 04-It's My Life
DR11      -5.62 dB   -18.39 dB      4:26 05-Lay Your Hands On Me
DR14      -5.67 dB   -19.67 dB      3:26 06-You Give Love A Bad Name
DR11      -5.57 dB   -21.34 dB      5:37 07-Bed Of Roses
DR14      -5.49 dB   -20.52 dB      3:43 08-Everyday
DR14      -5.70 dB   -20.54 dB      5:27 09-Born To Be My Baby
DR11      -5.70 dB   -20.25 dB      4:11 10-Keep The Faith
DR13      -5.68 dB   -20.03 dB      4:20 11-I'll Be There For You
DR12      -5.50 dB   -20.74 dB      4:18 12-Always
--------------------------------------------------------------------------------

Number of tracks:  12
Official DR value: DR13

Samplerate:        2822400 Hz / PCM Samplerate: 176400 Hz
Channels:          6
Bits per sample:   1
Bitrate:           16934 kbps
Codec:             DST64
================================================================================

--------------------------------------------------------------------------------
Analyzed: Bon Jovi / This Left Feels Right
--------------------------------------------------------------------------------

DR         Peak         RMS     Duration Track
--------------------------------------------------------------------------------
DR8       -5.35 dB   -16.05 dB      3:44 01-Wanted Dead Or Alive
DR9       -5.46 dB   -16.30 dB      3:40 02-Livin' On A Prayer
DR8       -5.55 dB   -15.33 dB      4:27 03-Bad Medicine
DR9       -5.74 dB   -16.90 dB      3:42 04-It's My Life
DR8       -5.57 dB   -15.99 dB      4:27 05-Lay Your Hands On Me
DR9       -5.54 dB   -16.39 dB      3:29 06-You Give Love A Bad Name
DR9       -5.61 dB   -17.49 dB      5:38 07-Bed Of Roses
DR9       -5.16 dB   -16.60 dB      3:44 08-Everyday
DR8       -5.53 dB   -15.29 dB      5:27 09-Born To Be My Baby
DR8       -5.23 dB   -15.87 dB      4:12 10-Keep The Faith
DR8       -5.21 dB   -15.13 dB      4:21 11-I'll Be There For You
DR9       -5.33 dB   -15.95 dB      4:18 12-Always
--------------------------------------------------------------------------------

Number of tracks:  12
Official DR value: DR9

Samplerate:        2822400 Hz / PCM Samplerate: 176400 Hz
Channels:          2
Bits per sample:   1
Bitrate:           5645 kbps
Codec:             DST64
================================================================================




Create a new paste based on this one


Comments: