[ create a new paste ] login | about

Link: http://codepad.org/A2hpR0FQ    [ raw code | fork ]

Plain Text, pasted on Feb 28:
foobar2000 1.5 / Dynamic Range Meter 1.1.1
log date: 2020-02-28 23:09:24

--------------------------------------------------------------------------------
Analyzed: Wishbone Ash / Coat of Arms
--------------------------------------------------------------------------------

DR         Peak         RMS     Duration Track
--------------------------------------------------------------------------------
DR9       -0.17 dB   -10.77 dB      4:16 01-We Stand as One
DR9       -0.18 dB   -10.42 dB      7:55 02-Coat of Arms
DR8       -0.19 dB    -9.94 dB      5:17 03-Empty Man
DR8       -0.20 dB   -10.00 dB      5:14 04-Floreana
DR8       -0.15 dB    -9.91 dB      4:55 05-Drive
DR9       -0.17 dB   -11.33 dB      7:35 06-It's Only You I See
DR8       -0.88 dB   -10.70 dB      4:51 07-Too Cool for AC
DR9       -0.21 dB   -10.36 dB      4:46 08-Back in the Day
DR10      -0.23 dB   -12.31 dB      4:07 09-Déjà-Vu
DR9       -0.22 dB   -11.24 dB      4:21 10-When the Love is Shared
DR8       -0.77 dB   -10.36 dB      5:38 11-Personal Halloween
--------------------------------------------------------------------------------

Number of tracks:  11
Official DR value: DR9

Samplerate:        44100 Hz
Channels:          2
Bits per sample:   16
Bitrate:           950 kbps
Codec:             FLAC
================================================================================




Create a new paste based on this one


Comments: