[ create a new paste ] login | about

Link: http://codepad.org/A7k6YK6v    [ raw code | fork ]

Plain Text, pasted on Mar 7:
foobar2000 1.5 / Dynamic Range Meter 1.1.1
log date: 2020-03-07 18:18:10

--------------------------------------------------------------------------------
Analyzed: Sarah Brightman / La Luna
--------------------------------------------------------------------------------

DR         Peak         RMS     Duration Track
--------------------------------------------------------------------------------
DR9       -3.41 dB   -19.13 dB      2:53 01-14]: La Luna
DR9       -0.48 dB   -13.24 dB      4:34 02-Winter In July
DR9       -0.64 dB   -15.35 dB      4:11 03-Scarborough Fair
DR10      -0.74 dB   -16.45 dB      4:37 04-Figlio Perduto
DR9       -0.61 dB   -14.23 dB      3:40 05-A Whiter Shade of Pale
DR9       -0.52 dB   -15.56 dB      4:29 06-He Doesnt See Me
DR9       -8.46 dB   -22.57 dB      1:14 07-Serenade
DR9       -0.66 dB   -15.70 dB      2:13 08-How Fair This Spot
DR9       -0.22 dB   -15.29 dB      4:28 09-Hijo De La Luna
DR9       -0.34 dB   -13.79 dB      5:24 10-Here With Me
DR10      -0.85 dB   -16.60 dB      2:47 11-La Califfa
DR9       -0.53 dB   -14.62 dB      6:12 12-This Love
DR9       -0.98 dB   -15.76 dB      3:07 13-Solo Con te
DR10      -0.87 dB   -16.25 dB      3:48 14-Gloomy Sunday
DR11      -0.67 dB   -18.66 dB      4:58 15-La Luna
--------------------------------------------------------------------------------

Number of tracks:  15
Official DR value: DR9

Samplerate:        88200 Hz
Channels:          6
Bits per sample:   24
Bitrate:           7117 kbps
Codec:             FLAC
================================================================================




Create a new paste based on this one


Comments: