[ create a new paste ] login | about

Link: http://codepad.org/AFzwqAE6    [ raw code | fork ]

Plain Text, pasted on Nov 24:
foobar2000 1.3.16 / Dynamic Range Meter 1.1.1
log date: 2017-11-23 18:28:50

--------------------------------------------------------------------------------
Analyzed: Frank Sinatra / Point of No Return
--------------------------------------------------------------------------------

DR         Peak         RMS     Duration Track
--------------------------------------------------------------------------------
DR11      -2.64 dB   -16.88 dB      3:48 01-When the World Was Young
DR10      -0.94 dB   -15.20 dB      2:50 02-I'll Remember April
DR10      -2.41 dB   -16.22 dB      4:20 03-September Song
DR11      -0.31 dB   -14.48 dB      2:41 04-A Million Dreams Ago
DR10      -2.18 dB   -16.27 dB      2:43 05-I'll See You Again
DR9       -1.04 dB   -14.58 dB      3:15 06-There Will Never Be Another You
DR10      -4.77 dB   -17.14 dB      2:59 07-Somewhere Along the Way
DR8       -2.70 dB   -14.44 dB      2:50 08-It's a Blue World
DR10      -2.42 dB   -15.97 dB      3:59 09-These Foolish Things (Remind Me of You)
DR10      -2.42 dB   -16.06 dB      3:16 10-As Time Goes By
DR9       -4.28 dB   -17.20 dB      2:48 11-I'll Be Seeing You
DR9       -1.11 dB   -15.30 dB      3:57 12-Memories of You
--------------------------------------------------------------------------------

Number of tracks:  12
Official DR value: DR10

Samplerate:        44100 Hz
Channels:          2
Bits per sample:   16
Bitrate:           821 kbps
Codec:             FLAC
================================================================================




Create a new paste based on this one


Comments: