[ create a new paste ] login | about

Link: http://codepad.org/AKdvZjrf    [ raw code | fork ]

Plain Text, pasted on Aug 7:
foobar2000 1.3.17 / Dynamic Range Meter 1.1.1
log date: 2018-08-06 13:08:21

--------------------------------------------------------------------------------
Analyzed: Rod Stewart / An Old Raincoat Won't Ever Let You Down
--------------------------------------------------------------------------------

DR         Peak         RMS     Duration Track
--------------------------------------------------------------------------------
DR10      -0.10 dB   -12.91 dB      5:08 01-Street Fighting Man
DR11      -2.69 dB   -19.88 dB      2:33 02-Man Of Constant Sorrow
DR10      -0.10 dB   -12.66 dB      4:41 03-Blind Prayer
DR11      -0.14 dB   -16.17 dB      4:27 04-Handbags & Gladrags
DR13      -0.33 dB   -15.40 dB      3:07 05-An Old Raincoat Won't Ever Let You Down
DR10      -0.10 dB   -12.90 dB      4:48 06-I Wouldn't Ever Change A Thing
DR10      -0.10 dB   -13.66 dB      4:30 07-Cindy's Lament
DR12      -0.10 dB   -15.52 dB      3:43 08-Dirty Old Town
--------------------------------------------------------------------------------

Number of tracks:  8
Official DR value: DR11

Samplerate:        192000 Hz
Channels:          2
Bits per sample:   24
Bitrate:           6113 kbps
Codec:             FLAC
================================================================================




Create a new paste based on this one


Comments: