[ create a new paste ] login | about

Link: http://codepad.org/AL7UXLaW    [ raw code | fork ]

Plain Text, pasted on Jul 30:
foobar2000 1.5 / Dynamic Range Meter 1.1.1
log date: 2020-07-30 22:57:15

--------------------------------------------------------------------------------
Analyzed: James Gang / The Best Of The James Gang
--------------------------------------------------------------------------------

DR         Peak         RMS     Duration Track
--------------------------------------------------------------------------------
DR12      -0.54 dB   -15.34 dB      3:38 01-Walk Away
DR12      -1.10 dB   -16.35 dB      3:59 02-Funk #49
DR12      -0.83 dB   -16.69 dB      3:32 03-Midnight Man
DR12      -0.01 dB   -14.85 dB      5:41 04-The Bomber - Closet Queen - Cast Your Fate To The Wind
DR13      -2.91 dB   -20.37 dB      2:36 05-Yadig?
DR12      -0.88 dB   -15.80 dB      5:57 06-Take A look Around
DR13      -2.14 dB   -17.62 dB      2:49 07-Funk #48
DR12      -1.30 dB   -15.55 dB      4:41 08-Woman
DR11      -2.06 dB   -18.82 dB      5:00 09-Ashes, The Rain And I
DR13      -2.45 dB   -16.79 dB     12:07 10-Stop
--------------------------------------------------------------------------------

Number of tracks:  10
Official DR value: DR12

Samplerate:        88200 Hz
Channels:          2
Bits per sample:   24
Bitrate:           2660 kbps
Codec:             FLAC
================================================================================




Create a new paste based on this one


Comments: