[ create a new paste ] login | about

Link: http://codepad.org/APYt6ePc    [ raw code | fork ]

Plain Text, pasted on Dec 19:
foobar2000 1.6 / Dynamic Range Meter 1.1.1
log date: 2020-12-19 01:57:39

--------------------------------------------------------------------------------
Analyzed: The Manhattan Transfer / The Christmas Album
--------------------------------------------------------------------------------

DR         Peak         RMS     Duration Track
--------------------------------------------------------------------------------
DR12      -2.88 dB   -18.34 dB      5:37 01-Snowfall
DR13      -2.02 dB   -19.10 dB      4:35 02-Let It Snow, Let It Snow, Let It Snow
DR14      -0.23 dB   -17.83 dB      3:03 03-Santa Claus Is Coming To Town Santa Man
DR12      -2.08 dB   -18.95 dB      4:41 04-The Christmas Song (Chestnuts Roasting On An Open Fire)
DR12      -2.39 dB   -18.72 dB      5:56 05-Silent Night, Holy Night
DR12      -2.71 dB   -18.01 dB      1:24 06-Caroling, Caroling
DR14      -0.01 dB   -17.31 dB      4:08 07-Happy Holiday The Holiday Season
DR11      -5.34 dB   -19.51 dB      4:08 08-A Christmas Love Song
DR12      -1.54 dB   -19.09 dB      5:56 09-It Came Upon A Midnight Clear
DR12      -2.64 dB   -19.48 dB      4:40 10-Have Yourself A Merry Little Christmas
DR14      -0.03 dB   -17.62 dB      3:51 11-Goodnight
--------------------------------------------------------------------------------

Number of tracks:  11
Official DR value: DR13

Samplerate:        88200 Hz
Channels:          2
Bits per sample:   24
Bitrate:           2600 kbps
Codec:             FLAC
================================================================================




Create a new paste based on this one


Comments: