[ create a new paste ] login | about

Link: http://codepad.org/AQ1YUP9F    [ raw code | fork ]

Plain Text, pasted on Aug 5:
[CUETools log; Date: 8/5/2017 12:57:24 PM; Version: 2.1.5]
[CTDB TOCID: VvH3P_sZObG2N7sbKbWBBP9Hu4Y-] disk not present in database.
[AccurateRip ID: 001eafd0-011f51aa-9210880c] found.
Track   [  CRC   |   V2   ] Status
 01     [efd115b4|19c98833] (0+1/1) Accurately ripped
 02     [b75855c3|ff74c562] (0+1/1) Accurately ripped
 03     [6944ed1b|07ba44e6] (0+1/1) Accurately ripped
 04     [8e2d0e6e|ffee5676] (0+1/1) Accurately ripped
 05     [79dd1e6e|9a292d8c] (0+1/1) Accurately ripped
 06     [43aba773|65ccdd2b] (0+1/1) Accurately ripped
 07     [669f1186|81a3c75e] (0+1/1) Accurately ripped
 08     [9145822e|9e94cf25] (0+1/1) Accurately ripped
 09     [a199e101|5a6291d4] (0+1/1) Accurately ripped
 10     [e2ba3655|845b28b6] (0+1/1) Accurately ripped
 11     [2cbe278d|b7ad4a74] (0+1/1) Accurately ripped
 12     [d173c72e|6407ded2] (0+1/1) Accurately ripped

Track Peak [ CRC32  ] [W/O NULL] 
 --   98.5 [AFD623BC] [CD9BE70A]           
 01   96.6 [FA848993] [BD46FEC9]           
 02   96.6 [909A6AC6] [050A3C24]           
 03   96.6 [366AEB00] [11E60CFD]           
 04   96.6 [A915E37F] [D79CEE50]           
 05   96.6 [38062092] [10162A99]           
 06   96.6 [E47C9D3E] [DCD0CE03]           
 07   96.3 [6C07CAED] [D79DEDFC]           
 08   96.5 [80C58E5E] [D8B77C9E]           
 09   80.2 [3E70D720] [ED53F6A2]           
 10   98.5 [1D60C3F5] [34F3B27E]           
 11   96.6 [E539CA8D] [042829F6]           
 12   96.6 [CEDA01AC] [00AB3466]           



Create a new paste based on this one


Comments: