[ create a new paste ] login | about

Link: http://codepad.org/AQbJp84b    [ raw code | fork ]

Plain Text, pasted on Jan 12:
foobar2000 1.3.16 / Dynamic Range Meter 1.1.1
log date: 2018-01-09 23:13:41

--------------------------------------------------------------------------------
Analyzed: Elvis Costello with Burt Bacharach / Painted From Memory (2017 MFSL Hybrid SACD)
--------------------------------------------------------------------------------

DR         Peak         RMS     Duration Track
--------------------------------------------------------------------------------
DR14      -1.48 dB   -19.65 dB      4:20 01-In The Darkest Place
DR13      -1.69 dB   -16.68 dB      4:36 02-Toledo
DR12      -1.89 dB   -18.20 dB      2:48 03-I Still Have That Other Girl
DR12      -2.21 dB   -17.19 dB      5:11 04-This House Is Empty Now
DR13      -0.77 dB   -16.28 dB      4:43 05-Tears At The Birthday Party
DR13      -1.62 dB   -16.67 dB      3:30 06-Such Unlikely Lovers
DR13      -0.33 dB   -20.35 dB      4:20 07-My Thief
DR11      -2.25 dB   -15.71 dB      4:18 08-The Long Division
DR12      -2.56 dB   -18.62 dB      4:17 09-Painted From Memory
DR13      -0.30 dB   -15.32 dB      4:11 10-The Sweetest Punch
DR13      -2.31 dB   -18.39 dB      4:10 11-What's Her Name Today?
DR13      -0.28 dB   -16.99 dB      6:11 12-God Give Me Strength
--------------------------------------------------------------------------------

Number of tracks:  12
Official DR value: DR13

Samplerate:        88200 Hz
Channels:          2
Bits per sample:   24
Bitrate:           2665 kbps
Codec:             FLAC
================================================================================




Create a new paste based on this one


Comments: