[ create a new paste ] login | about

Link: http://codepad.org/AS1Cp3F2    [ raw code | fork ]

Plain Text, pasted on Apr 20:
foobar2000 1.4.1 / Dynamic Range Meter 1.1.1
log date: 2019-04-20 07:49:49

--------------------------------------------------------------------------------
Analyzed: The 3 Sounds / Bottoms UP!
--------------------------------------------------------------------------------

DR         Peak         RMS     Duration Track
--------------------------------------------------------------------------------
DR14      -6.85 dB   -24.03 dB      4:01 01-Besame Mucho
DR13      -6.24 dB   -23.09 dB      5:08 02-Angel Eyes
DR16      -7.89 dB   -25.74 dB      4:49 03-Time After Time
DR14      -8.04 dB   -24.08 dB      6:03 04-Love Walked In
DR16      -7.14 dB   -26.24 dB      4:50 05-I Could Write a Book
DR15      -7.37 dB   -25.55 dB      4:51 06-Jinne Lou
DR14      -7.03 dB   -23.90 dB      3:05 07-Nothing Ever Changes My Love for You
DR14      -5.78 dB   -22.95 dB      6:51 08-Falling in Love With Love
--------------------------------------------------------------------------------

Number of tracks:  8
Official DR value: DR14

Samplerate:        2822400 Hz / PCM Samplerate: 176400 Hz
Channels:          2
Bits per sample:   1
Bitrate:           5645 kbps
Codec:             DSD64
================================================================================




Create a new paste based on this one


Comments: