[ create a new paste ] login | about

Link: http://codepad.org/ASFiown0    [ raw code | fork ]

Plain Text, pasted on Dec 20:
foobar2000 1.5 / Dynamic Range Meter 1.1.1
log date: 2019-12-20 23:37:15

--------------------------------------------------------------------------------
Analyzed: Percy Faith  / Chinatown & Love Theme From Romeo And Juliet
--------------------------------------------------------------------------------

DR         Peak         RMS     Duration Track
--------------------------------------------------------------------------------
DR11      -2.97 dB   -17.15 dB      3:10 01-The Entertainer  
DR13      -1.81 dB   -16.34 dB      2:41 02-Im Gonna Go Fishin
DR11      -5.03 dB   -19.37 dB      3:16 03-What ll I Do
DR12      -1.79 dB   -16.59 dB      3:08 04-Deep in the Morning  
DR11      -4.17 dB   -21.19 dB      2:23 05-Chinatown 
DR12      -1.27 dB   -16.86 dB      3:03 06-Fifth Movement  
DR12      -3.63 dB   -18.86 dB      3:43 07-Moody  
DR12      -2.80 dB   -18.76 dB      2:53 08-I Got Rhythm  
DR11      -3.00 dB   -17.90 dB      4:04 09-Midnight at the Oasis  
DR13      -3.19 dB   -18.25 dB      3:06 10-1  2  3  4
DR10      -5.28 dB   -18.13 dB      2:41 11-A Summer Place  
DR10      -6.74 dB   -18.92 dB      2:47 12-Spinning Wheel  
DR11      -6.08 dB   -20.89 dB      3:07 13-The April Fools  
DR12      -3.72 dB   -17.96 dB      2:45 14-Aquarius 
DR10      -7.91 dB   -20.72 dB      2:42 15-Love 
DR11      -8.39 dB   -21.22 dB      2:58 16-Hello Tomorrow 
DR10      -6.85 dB   -21.18 dB      3:11 17-Love Theme from Romeo and Juliet 
DR11      -4.81 dB   -18.72 dB      3:00 18-Good Morning Starshine  
DR10      -6.08 dB   -19.60 dB      2:56 19-One 
DR11      -5.12 dB   -18.52 dB      2:55 20-Without Her  
DR12      -4.06 dB   -20.64 dB      3:21 21-Through the Eyes of a Child  
--------------------------------------------------------------------------------

Number of tracks:  21
Official DR value: DR11

Samplerate:        88200 Hz
Channels:          2
Bits per sample:   24
Bitrate:           2454 kbps
Codec:             FLAC
================================================================================




Create a new paste based on this one


Comments: