[ create a new paste ] login | about

Link: http://codepad.org/ASJsiOrL    [ raw code | fork ]

Plain Text, pasted on Dec 31:
foobar2000 1.5 / Dynamic Range Meter 1.1.1
log date: 2019-12-31 23:41:06

--------------------------------------------------------------------------------
Analyzed: Inger Marie Gundersen / The Best of Inger Marie Gundersen II
--------------------------------------------------------------------------------

DR         Peak         RMS     Duration Track
--------------------------------------------------------------------------------
DR11      -6.70 dB   -20.77 dB      3:50 01-When All Is Said And Done     
DR10      -6.66 dB   -20.73 dB      4:25 02-Try To Find Me                
DR11      -6.94 dB   -19.84 dB      4:05 03-Last First Kiss               
DR10      -6.86 dB   -20.30 dB      3:15 04-Make This Moment              
DR8       -6.64 dB   -18.19 dB      3:39 05-Let It Be Me                  
DR10      -6.62 dB   -18.49 dB      4:57 06-Crying In The Rain            
DR10      -7.52 dB   -20.23 dB      5:30 07-Feels Like Home               
DR9       -7.45 dB   -18.40 dB      4:22 08-Where Were you                
DR10      -6.72 dB   -18.97 dB      4:06 09-I Can See Clearly Now         
DR9       -7.29 dB   -18.90 dB      5:39 10-One                           
DR11      -6.63 dB   -20.99 dB      2:30 11-I'm So Lonesome I Could Cry   
DR11      -6.96 dB   -21.67 dB      3:09 12-Even When                     
DR11      -6.64 dB   -19.78 dB      4:46 13-Take On Me                    
DR12      -6.63 dB   -22.69 dB      6:07 14-Fool On The Hill - Nature Boy 
--------------------------------------------------------------------------------

Number of tracks:  14
Official DR value: DR10

Samplerate:        2822400 Hz / PCM Samplerate: 44100 Hz
Channels:          2
Bits per sample:   1
Bitrate:           5645 kbps
Codec:             DSD64
================================================================================




Create a new paste based on this one


Comments: