[ create a new paste ] login | about

Link: http://codepad.org/ASi46wF3    [ raw code | fork ]

Plain Text, pasted on Nov 4:
foobar2000 1.3.17 / Dynamic Range Meter 1.1.1
log date: 2018-11-03 16:15:09

--------------------------------------------------------------------------------
Analyzed: Eagles / Legacy
--------------------------------------------------------------------------------

DR         Peak         RMS     Duration Track
--------------------------------------------------------------------------------
DR11      -1.96 dB   -17.37 dB      2:00 60-No More Walks In The Wood
DR9        0.00 dB   -10.54 dB      3:16 61-How Long
DR10      -0.01 dB   -10.87 dB      4:21 62-Busy Being Fabulous
DR9       -0.04 dB   -12.01 dB      3:54 63-What Do I Do With My Heart
DR10       0.00 dB   -11.48 dB      3:44 64-Guilty Of The Crime
DR10       0.00 dB   -10.96 dB      4:21 65-I Don't Want To Hear Any More
DR10      -0.07 dB   -12.79 dB      7:47 66-Waiting In The Weeds
DR10      -0.05 dB   -11.28 dB      4:03 67-No More Cloudy Days
DR12      -0.03 dB   -13.46 dB      4:01 68-Fast Company
DR10       0.00 dB   -13.09 dB      5:12 69-Do Something
DR10      -0.08 dB   -12.54 dB      2:22 70-You Are Not Alone
--------------------------------------------------------------------------------

Number of tracks:  11
Official DR value: DR10

Samplerate:        96000 Hz
Channels:          2
Bits per sample:   24
Bitrate:           2989 kbps
Codec:             FLAC
================================================================================




Create a new paste based on this one


Comments: