[ create a new paste ] login | about

Link: http://codepad.org/ATIZGrtP    [ raw code | fork ]

Plain Text, pasted on Aug 13:
foobar2000 1.4.4 / Dynamic Range Meter 1.1.1
log date: 2019-08-13 10:40:27

--------------------------------------------------------------------------------
Analyzed: The Who / The Who Sell Out (Mono Version)
--------------------------------------------------------------------------------

DR         Peak         RMS     Duration Track
--------------------------------------------------------------------------------
DR9        0.00 dB   -10.39 dB      3:46 01-Armenia City In The Sky (Mono Version)
DR11       0.00 dB   -14.10 dB      0:59 02-Heinz Baked Beans (Mono Version)
DR10       0.00 dB   -11.40 dB      2:35 03-Mary Anne With The Shaky Hand (Mono Version)
DR10       0.00 dB   -11.51 dB      2:31 04-Odorono (Mono Version)
DR10       0.00 dB   -12.16 dB      2:49 05-Tattoo (Mono Version)
DR10       0.00 dB   -11.17 dB      3:24 06-Our Love Was (Mono Version)
DR9        0.00 dB   -10.08 dB      4:05 07-I Can See For Miles (Mono Version)
DR10       0.00 dB   -11.66 dB      3:27 08-I Can't Reach You (Mono Version)
DR12       0.00 dB   -12.85 dB      0:56 09-Medac (Mono Version)
DR10       0.00 dB   -10.91 dB      2:39 10-Relax (Mono Version)
DR10       0.00 dB   -11.15 dB      3:03 11-Silas Stingy (Mono Version)
DR10      -1.69 dB   -15.02 dB      3:04 12-Sunrise (Mono Version)
DR10       0.00 dB   -10.87 dB      5:43 13-Rael (Pt. 1 & 2 / Mono Version)
DR11       0.00 dB   -11.98 dB      3:21 14-Mary Anne With The Shaky Hand (Alternative Version / Mono Version)
DR10       0.00 dB   -11.71 dB      2:31 15-Someone's Coming (U.S. Single Mix / Mono Version)
DR7        0.00 dB    -8.62 dB      3:25 16-Our Love Was (Take 12 Rejected Mono Mix)
--------------------------------------------------------------------------------

Number of tracks:  16
Official DR value: DR10

Samplerate:        96000 Hz
Channels:          2
Bits per sample:   24
Bitrate:           3226 kbps
Codec:             FLAC
================================================================================




Create a new paste based on this one


Comments: