[ create a new paste ] login | about

Link: http://codepad.org/AUAxQSS5    [ raw code | fork ]

Plain Text, pasted on Jul 19:
foobar2000 1.3.9 / Dynamic Range Meter 1.1.1
log date: 2015-11-24 12:33:45

--------------------------------------------------------------------------------
Analyzed: Public Image Limited / Metal Box (Second Edition) (2015 SHM-SACD)
--------------------------------------------------------------------------------

DR         Peak         RMS     Duration Track
--------------------------------------------------------------------------------
DR12      -0.26 dB   -14.09 dB     10:37 01-Albatross
DR12      -0.89 dB   -15.80 dB      5:07 02-Memories
DR14      -1.31 dB   -16.95 dB      4:13 03-Swan Lake
DR13      -2.29 dB   -16.52 dB      7:47 04-Poptones
DR13      -1.20 dB   -15.82 dB      4:33 05-Careering
DR13      -0.64 dB   -14.73 dB      3:11 06-Socialist
DR13      -0.14 dB   -16.20 dB      3:09 07-Graveyard
DR9       -3.30 dB   -13.48 dB      3:31 08-The Suit
DR13      -0.01 dB   -15.79 dB      4:32 09-Bad Baby
DR12      -1.93 dB   -16.82 dB      4:42 10-No Birds
DR14      -1.14 dB   -16.69 dB      5:03 11-Chant
DR11      -4.43 dB   -18.93 dB      4:27 12-Radio 4
--------------------------------------------------------------------------------

Number of tracks:  12
Official DR value: DR12

Samplerate:        88200 Hz
Channels:          2
Bits per sample:   24
Bitrate:           2528 kbps
Codec:             FLAC
================================================================================




Create a new paste based on this one


Comments: