[ create a new paste ] login | about

Link: http://codepad.org/AWfOa0aS    [ raw code | fork ]

Plain Text, pasted on Apr 25:
DISC 1
======

foobar2000 1.6.9 / Dynamic Range Meter 1.1.1
log date: 2022-04-25 23:19:13

--------------------------------------------------------------------------------
Analyzed: WILHELM FURTWANGLER / WAGNER: DIE WALKURE
--------------------------------------------------------------------------------

DR         Peak         RMS     Duration Track
--------------------------------------------------------------------------------
DR12      -6.16 dB   -24.45 dB      3:59 01-Die Walkure (2011 Digital Remaster): Act 1 - Vorspiel (Orchester)
DR16      -9.81 dB   -31.10 dB      8:49 02-Die Walkure (2011 Digital Remaster): Scene 1 - Wes Herd dies auch sei (Siegmund)
DR14      -7.51 dB   -27.17 dB      4:14 03-Die Walkure (2011 Digital Remaster): Einen Unseligen labtest du (Siegmund / Sieglinde)
DR16     -11.16 dB   -31.05 dB      5:10 04-Die Walkure (2011 Digital Remaster): Scene 2 - Mude am Herd fand ich den Mann (Sieglinde)
DR16      -6.01 dB   -26.54 dB      5:35 05-Die Walkure (2011 Digital Remaster): Friedmund darf ich nicht heissen (Siegmund)
DR15      -6.08 dB   -26.38 dB      4:23 06-Die Walkure (2011 Digital Remaster): Die so leidig Los dir beschied (Sieglinde / Hunding / Siegmund)
DR16      -6.98 dB   -27.76 dB      5:52 07-Die Walkure (2011 Digital Remaster): Ich weiss ein wildes Geschlecht (Hunding)
DR14      -6.11 dB   -25.54 dB      6:14 08-Die Walkure (2011 Digital Remaster): Scene 3 - Ein Schwert verheiss mir der Vater (Siegmund)
DR11      -5.77 dB   -21.56 dB      6:54 09-Die Walkure (2011 Digital Remaster): Schlafst du, Gast? (Sieglinde)
DR12      -5.96 dB   -22.91 dB      3:08 10-Die Walkure (2011 Digital Remaster): Wintersturme wichen dem Wonnemond (Siegmund)
DR10      -6.14 dB   -21.21 dB      2:04 11-Die Walkure (2011 Digital Remaster): Du bist der Lenz (Sieglinde)
DR12      -5.94 dB   -22.84 dB      6:21 12-Die Walkure (2011 Digital Remaster): O susseste Wonne! Seligstes Weib! (Siegmund)
DR10      -5.76 dB   -18.94 dB      3:49 13-Die Walkure (2011 Digital Remaster): Siegmund heiss ich und Siegmund bin ich! (Siegmund / Sieglinde)
DR9       -5.79 dB   -17.88 dB      2:34 14-Die Walkure (2011 Digital Remaster): Act II - Vorspiel - Nun zaume dein Ross, reisige Maid! (Wotan)
DR10      -5.80 dB   -18.75 dB      2:29 15-Die Walkure (2011 Digital Remaster): Scene 1 - Hojotoho! Hojotoho! (Brunnhilde)
--------------------------------------------------------------------------------

Number of tracks:  15
Official DR value: DR13

Samplerate:        2822400 Hz / PCM Samplerate: 176400 Hz
Channels:          2
Bits per sample:   1
Bitrate:           5645 kbps
Codec:             DSD64
================================================================================



DISC 2
======

foobar2000 1.6.9 / Dynamic Range Meter 1.1.1
log date: 2022-04-25 23:22:36

--------------------------------------------------------------------------------
Analyzed: WILHELM FURTWANGLER / WAGNER : DIE WALKURE
--------------------------------------------------------------------------------

DR         Peak         RMS     Duration Track
--------------------------------------------------------------------------------
DR13      -5.93 dB   -23.64 dB      4:27 01-Die Walkure (2011 Digital Remaster): (Act II Scene 1 - ) Der alte Sturm, die alte Muh! (Wotan)
DR12      -5.89 dB   -22.12 dB     10:16 02-Die Walkure (2011 Digital Remaster): So ist es denn aus mit den ewigen Gottern (Fricka)
DR12      -7.01 dB   -23.32 dB      3:21 03-Die Walkure (2011 Digital Remaster): Heiaha! Heiaha! Hojotoho! (Brunnhilde / Fricka / Wotan)
DR13      -5.84 dB   -24.77 dB      5:18 04-Die Walkure (2011 Digital Remaster): Scene 2 - Schlimm, furcht'ich, Schloss der Streit (Brunnhilde)
DR14      -9.00 dB   -28.27 dB      4:48 05-Die Walkure (2011 Digital Remaster): Als junger Liebe Lust mir verblich (Wotan)
DR13      -6.58 dB   -24.75 dB      6:04 06-Die Walkure (2011 Digital Remaster): Ein andres ist's : achte es wohl (Wotan)
DR11      -5.82 dB   -21.78 dB      3:55 07-Die Walkure (2011 Digital Remaster): So nimmst du von Siegmund den Sieg? (Brunnhilde)
DR11      -5.64 dB   -21.98 dB      7:37 08-Die Walkure (2011 Digital Remaster): So nimm meinen Segen, Niblungen-Sohn! (Brunnhilde / Wotan)
DR12      -5.71 dB   -22.98 dB      4:42 09-Die Walkure (2011 Digital Remaster): Scene 3 - Raste nun hier, gonne dir Ruh! (Wotan)
DR11      -5.79 dB   -22.07 dB      7:51 10-Die Walkure (2011 Digital Remaster): Hinweg! Hinweg! Flieh die Entweihte! (Siegmund / Sieglinde)
DR13      -7.41 dB   -25.60 dB      9:21 11-Die Walkure (2011 Digital Remaster): Scene 4 - Siegmund! Sieh auf mich! (Todesverkundigung) (Brunnhilde)
DR12      -5.82 dB   -21.93 dB      4:10 12-Die Walkure (2011 Digital Remaster): Erdenluft muss sie noch atmen (Brunnhilde)
DR12      -5.82 dB   -21.83 dB      4:21 13-Die Walkure (2011 Digital Remaster): Weh! Weh! Sussestes Weib (Siegmund)
DR11      -5.82 dB   -20.07 dB      2:29 14-Die Walkure (2011 Digital Remaster): Zwei leben lachen dir hier (Brunnhilde / Siegmund)
--------------------------------------------------------------------------------

Number of tracks:  14
Official DR value: DR12

Samplerate:        2822400 Hz / PCM Samplerate: 176400 Hz
Channels:          2
Bits per sample:   1
Bitrate:           5645 kbps
Codec:             DSD64
================================================================================



DISC 3
======

foobar2000 1.6.9 / Dynamic Range Meter 1.1.1
log date: 2022-04-25 23:26:02

--------------------------------------------------------------------------------
Analyzed: WILHELM FURTWANGLER / WAGNER: DIE WALKURE
--------------------------------------------------------------------------------

DR         Peak         RMS     Duration Track
--------------------------------------------------------------------------------
DR14      -5.74 dB   -24.98 dB      4:40 01-Die Walkure (2011 Digital Remaster): (Act II -) Scene 5 - Zauberfest bezahmt ein Schlaf (Siegmund / Sieglinde)
DR10      -5.80 dB   -20.79 dB      4:35 02-Die Walkure (2011 Digital Remaster): Wehwalt! Wehwalt! (Hunding / Siegmund / Sieglinde / Brunnhilde / Wotan)
DR10      -5.79 dB   -20.05 dB      8:08 03-Die Walkure (2011 Digital Remaster): Act III Scene 1 - Walkurenritt : Hojotoho! Hojotoho! (Orchester) (Gerhilde / Helmwige / Waltraute / Schwertleite / Ortlinde / Siegrune / Grimgerde / Rosswisse)
DR11      -5.82 dB   -20.07 dB      3:40 04-Die Walkure (2011 Digital Remaster): Schutzt mich und helft in hochster Not! (Brunnhilde / Die acht Walkuren)
DR11      -5.84 dB   -20.43 dB      5:22 05-Die Walkure (2011 Digital Remaster): Nicht sehre dich Sorge um mich (Sieglinde / Brunnhilde / Die acht Walkuren)
DR12      -5.78 dB   -20.93 dB      5:02 06-Die Walkure (2011 Digital Remaster): Steh, Brunnhild'! (Wotan / Die acht Walkuren / Brunnhilde)
DR11      -5.68 dB   -21.01 dB     10:40 07-Die Walkure (2011 Digital Remaster): Scene 2 - Hier bin ich, Vater, begiete die Strafe! (Brunnhilde / Die acht Walkuren)
DR12      -5.82 dB   -22.44 dB     11:43 08-Die Walkure (2011 Digital Remaster): Scene 3 - War es so schmahlich, was ich verbrach (Brunnhilde)
DR12      -5.92 dB   -22.82 dB      4:05 09-Die Walkure (2011 Digital Remaster): Deinen leichten Sinn lass dich denn leiten (Wotan)
DR10      -5.60 dB   -20.82 dB      5:51 10-Die Walkure (2011 Digital Remaster): Du zeugtest ein edles Geschlecht (Brunnhilde / Wotan)
DR9       -5.71 dB   -18.57 dB      4:28 11-Die Walkure (2011 Digital Remaster): Leb wohl, du kuhnes, herrliches kind! (Wotan)
DR12      -7.73 dB   -24.87 dB      6:01 12-Die Walkure (2011 Digital Remaster): Der Augen leuchtendes Paar (Wotan)
DR12      -5.85 dB   -21.38 dB      1:20 13-Die Walkure (2011 Digital Remaster): Loge, hor! Lausche hieher! (Wotan)
DR10      -5.78 dB   -19.55 dB      3:29 14-Die Walkure (2011 Digital Remaster): Feuerzauber (Orchestra)
--------------------------------------------------------------------------------

Number of tracks:  14
Official DR value: DR11

Samplerate:        2822400 Hz / PCM Samplerate: 176400 Hz
Channels:          2
Bits per sample:   1
Bitrate:           5645 kbps
Codec:             DSD64
================================================================================




Create a new paste based on this one


Comments: