[ create a new paste ] login | about

Link: http://codepad.org/Aewx7jAM    [ raw code | fork ]

Plain Text, pasted on Sep 22:
[CUETools log; Date: 9/21/2016 10:06:27 PM; Version: 2.1.5]
[CTDB TOCID: SSTJU6FA.7aZLkmW5Z4sBvm0uPo-] found.
Track | CTDB Status
  1   | (39/39) Accurately ripped
  2   | (39/39) Accurately ripped
  3   | (39/39) Accurately ripped
  4   | (39/39) Accurately ripped
  5   | (39/39) Accurately ripped
  6   | (39/39) Accurately ripped
  7   | (39/39) Accurately ripped
  8   | (38/39) Accurately ripped
  9   | (38/39) Accurately ripped
 10   | (39/39) Accurately ripped
 11   | (38/39) Accurately ripped
 12   | (39/39) Accurately ripped
 13   | (39/39) Accurately ripped
 14   | (39/39) Accurately ripped
 15   | (39/39) Accurately ripped
 16   | (39/39) Accurately ripped
 17   | (39/39) Accurately ripped
[AccurateRip ID: 002074a1-01a020a1-e90cf211] found.
Track   [  CRC   |   V2   ] Status
 01     [47aeed69|3cbbcc60] (00+00/33) No match
 02     [abf2db21|88baf910] (00+00/34) No match
 03     [7a6d027a|113047de] (00+00/33) No match
 04     [e8dbb913|9ae7c26a] (00+00/33) No match
 05     [917df646|5e2f73a7] (00+00/33) No match
 06     [048566f4|ff29f639] (00+00/33) No match
 07     [8f40632e|abb64e93] (00+00/33) No match
 08     [337a521c|926b593a] (00+00/33) No match
 09     [dc5527b0|c537a473] (00+00/33) No match
 10     [587b18fb|ad2a3708] (00+00/33) No match
 11     [b8b2b129|43fafaeb] (00+00/33) No match
 12     [c62701c5|4c29e7b2] (00+00/33) No match
 13     [268b9fe8|3c726190] (00+00/33) No match
 14     [fdc48d21|aff95e16] (00+00/34) No match
 15     [6cf1a146|b0074438] (00+00/33) No match
 16     [6c62348c|e0ce012b] (00+00/33) No match
 17     [85674422|bb8b4145] (00+00/33) No match
Offsetted by 664:
 01     [95467cb1] (09/33) Accurately ripped
 02     [8a4169f1] (10/34) Accurately ripped
 03     [219c1b1a] (09/33) Accurately ripped
 04     [40bc555b] (09/33) Accurately ripped
 05     [c5b791ce] (09/33) Accurately ripped
 06     [9c32dd74] (09/33) Accurately ripped
 07     [289e7cde] (09/33) Accurately ripped
 08     [0f5ba76c] (09/33) Accurately ripped
 09     [d49f9de0] (09/33) Accurately ripped
 10     [d352f473] (09/33) Accurately ripped
 11     [0e8e1a09] (09/33) Accurately ripped
 12     [c2efc09d] (09/33) Accurately ripped
 13     [f3ae90d8] (09/33) Accurately ripped
 14     [859ddc81] (10/34) Accurately ripped
 15     [830c081e] (09/33) Accurately ripped
 16     [72527aac] (09/33) Accurately ripped
 17     [edded562] (09/33) Accurately ripped
Offsetted by 652:
 01     [42235ccd] (00/33) No match (V2 was not tested)
 02     [89528009] (00/34) No match (V2 was not tested)
 03     [a96231ca] (00/33) No match (V2 was not tested)
 04     [0c4186f7] (00/33) No match (V2 was not tested)
 05     [f49499ca] (00/33) No match (V2 was not tested)
 06     [30970e34] (00/33) No match (V2 was not tested)
 07     [a5d8ee86] (00/33) No match (V2 was not tested)
 08     [4c27c644] (00/33) No match (V2 was not tested)
 09     [8abd1d48] (00/33) No match (V2 was not tested)
 10     [105538f7] (00/33) No match (V2 was not tested)
 11     [8b761699] (00/33) No match (V2 was not tested)
 12     [b8331071] (00/33) No match (V2 was not tested)
 13     [98122ce0] (00/33) No match (V2 was not tested)
 14     [4eba51d1] (00/34) No match (V2 was not tested)
 15     [249343f2] (00/33) No match (V2 was not tested)
 16     [0958ee9c] (00/33) No match (V2 was not tested)
 17     [29ab52c2] (00/33) No match (V2 was not tested)

Track Peak [ CRC32  ] [W/O NULL] 
 --  100.0 [7F0CDF65] [EC785C6A]           
 01   99.9 [F7637DB4] [9C9A0A54]           
 02   99.9 [9EC2A62A] [FA9F7412]           
 03  100.0 [924B78A4] [5B94B80C]           
 04   99.9 [01220B6C] [1A356412]           
 05   99.4 [746D3CB7] [1482F671]           
 06   99.0 [259BB17E] [C10EB626]           
 07   85.0 [14F5E61D] [449350A5]           
 08   94.4 [14E0B278] [87E91405]           
 09   99.3 [F4A55FEF] [58310B11]           
 10   99.2 [083B0EC5] [C807D2D1]           
 11   99.3 [50AA0824] [27CDCD4A]           
 12   99.4 [9D50F60A] [B133C98E]           
 13   99.2 [D481FB05] [033FDC8C]           
 14   99.3 [92B76A44] [2FA32BC4]           
 15   99.5 [680D34D9] [391F6592]           
 16   99.3 [7FA82BE4] [CFC1D6B0]           
 17   99.3 [71BBC9C4] [320BBD60]           



Create a new paste based on this one


Comments: