[ create a new paste ] login | about

Link: http://codepad.org/Afpaf1BD    [ raw code | fork ]

Plain Text, pasted on Jun 7:
Exact Audio Copy V1.0 beta 3 from 29. August 2011

EAC extraction logfile from 2. February 2014, 12:43

John Mellencamp / The Lonesome Jubilee

Used drive  : PLEXTOR BD-R  PX-B950SA   Adapter: 6  ID: 0

Read mode               : Secure
Utilize accurate stream : Yes
Defeat audio cache      : Yes
Make use of C2 pointers : No

Read offset correction                      : 6
Overread into Lead-In and Lead-Out          : No
Fill up missing offset samples with silence : Yes
Delete leading and trailing silent blocks   : No
Null samples used in CRC calculations       : Yes
Used interface                              : Native Win32 interface for Win NT & 2000

Used output format : Internal WAV Routines
Sample format      : 44.100 Hz; 16 Bit; Stereo


TOC of the extracted CD

     Track |   Start  |  Length  | Start sector | End sector 
    ---------------------------------------------------------
        1  |  0:00.00 |  3:51.60 |         0    |    17384   
        2  |  3:51.60 |  3:38.50 |     17385    |    33784   
        3  |  7:30.35 |  4:20.72 |     33785    |    53356   
        4  | 11:51.32 |  3:58.65 |     53357    |    71271   
        5  | 15:50.22 |  4:48.53 |     71272    |    92924   
        6  | 20:39.00 |  4:17.50 |     92925    |   112249   
        7  | 24:56.50 |  3:44.27 |    112250    |   129076   
        8  | 28:41.02 |  3:28.68 |    129077    |   144744   
        9  | 32:09.70 |  4:05.37 |    144745    |   163156   
       10  | 36:15.32 |  3:33.08 |    163157    |   179139   
       11  | 39:48.40 |  1:58.30 |    179140    |   188019   


Range status and errors

Selected range

     Filename C:\John Mellencamp\2013 John Mellencamp 1978-2012 (19CD Box Set Mercury Records)\1987 The Lonesome Jubilee\John Mellencamp - The Lonesome Jubilee.wav

     Peak level 98.8 %
     Extraction speed 7.3 X
     Range quality 99.9 %
     Test CRC EC6362C4
     Copy CRC EC6362C4
     Copy OK

No errors occurred

 
AccurateRip summary
 
Track  1  accurately ripped (confidence 41)  [71CCD93F]  (AR v2)
Track  2  accurately ripped (confidence 41)  [AEA5567D]  (AR v2)
Track  3  accurately ripped (confidence 41)  [5BC294EA]  (AR v2)
Track  4  accurately ripped (confidence 41)  [BF3CC5E9]  (AR v2)
Track  5  accurately ripped (confidence 41)  [37313059]  (AR v2)
Track  6  accurately ripped (confidence 41)  [17BFEED0]  (AR v2)
Track  7  accurately ripped (confidence 41)  [65C33A82]  (AR v2)
Track  8  accurately ripped (confidence 41)  [2C684EC7]  (AR v2)
Track  9  accurately ripped (confidence 41)  [921FEB33]  (AR v2)
Track 10  accurately ripped (confidence 41)  [790F306F]  (AR v2)
Track 11  accurately ripped (confidence 39)  [B6A26ADD]  (AR v2)
 
All tracks accurately ripped

End of status report

==== Log checksum 3AA1971F990B1926A646A7D7C1C77D23D575C92EB721459DA21438C45CDC2FAF ====



Create a new paste based on this one


Comments: