[ create a new paste ] login | about

Link: http://codepad.org/AiMX0Ogo    [ raw code | fork ]

Plain Text, pasted on Apr 29:
[CUETools log; Date: 4/29/2017 11:27:27 AM; Version: 2.1.5]
[CTDB TOCID: 1qIMK3b8ZLRr81yl.In.GJEv8_I-] found.
Track | CTDB Status
  1   | (14/14) Accurately ripped
  2   | (14/14) Accurately ripped
  3   | (14/14) Accurately ripped
  4   | (14/14) Accurately ripped
  5   | (14/14) Accurately ripped
  6   | (14/14) Accurately ripped
  7   | (14/14) Accurately ripped
  8   | (14/14) Accurately ripped
  9   | (14/14) Accurately ripped
 10   | (14/14) Accurately ripped
 11   | (14/14) Accurately ripped
[AccurateRip ID: 000ee956-00831be1-9208e90b] found.
Track   [  CRC   |   V2   ] Status
 01     [23242c4a|ae59c13f] (00+28/28) Accurately ripped
 02     [f9c54d54|670eaaf4] (00+28/28) Accurately ripped
 03     [46411e7e|fbbeb54d] (00+28/28) Accurately ripped
 04     [c35f6cd2|0936dadb] (00+28/28) Accurately ripped
 05     [808a28d2|6b1d6eed] (00+28/28) Accurately ripped
 06     [96ac42ca|34f2675d] (00+28/28) Accurately ripped
 07     [9527abeb|7a8b5eec] (00+28/28) Accurately ripped
 08     [d49dbe37|64a3433f] (00+28/28) Accurately ripped
 09     [96c8a0eb|dadac20a] (00+28/28) Accurately ripped
 10     [5ad83516|04369843] (00+28/28) Accurately ripped
 11     [e38bc24a|a3611c0d] (00+28/28) Accurately ripped

Track Peak [ CRC32  ] [W/O NULL] [  LOG   ]
 --   97.3 [7C401F54] [C0002834]   CRC32   
 01   81.9 [E3A9A249] [AC095122]           
 02   92.9 [934B8DCE] [29035E6C]           
 03   97.3 [F1490830] [B192BB38]           
 04   90.2 [79C1961E] [27759432]           
 05   86.5 [023CC697] [0C79625E]           
 06   81.1 [9AF2909E] [C400F966]           
 07   95.0 [25BFDA53] [E8A7F7FC]           
 08   86.3 [92E014C5] [09D4CD28]           
 09   89.1 [5837229B] [B3C19535]           
 10   86.5 [7BE8DC14] [441DFB01]           
 11   95.9 [00A4EDA2] [A75292CB]           



Create a new paste based on this one


Comments: