[ create a new paste ] login | about

Link: http://codepad.org/AoMdeiJ8    [ raw code | fork ]

Plain Text, pasted on Feb 23:
Exact Audio Copy V1.0 beta 3 from 29. August 2011

EAC extraction logfile from 10. July 2013, 18:12

Foreigner / Head Games [MFSL UDSACD 2052]

Used drive  : Optiarc DVD RW AD-7200S   Adapter: 5  ID: 1

Read mode               : Secure
Utilize accurate stream : Yes
Defeat audio cache      : Yes
Make use of C2 pointers : No

Read offset correction                      : 48
Overread into Lead-In and Lead-Out          : No
Fill up missing offset samples with silence : Yes
Delete leading and trailing silent blocks   : No
Null samples used in CRC calculations       : Yes
Used interface                              : Installed external ASPI interface

Used output format              : User Defined Encoder
Selected bitrate                : 1024 kBit/s
Quality                         : High
Add ID3 tag                     : No
Command line compressor         : D:\Program Files (x86)\Exact Audio Copy\wavpack.exe
Additional command line options : -hlmx2 %source% %dest%


TOC of the extracted CD

     Track |   Start  |  Length  | Start sector | End sector 
    ---------------------------------------------------------
        1  |  0:00.00 |  3:40.32 |         0    |    16531   
        2  |  3:40.32 |  3:17.38 |     16532    |    31344   
        3  |  6:57.70 |  3:24.18 |     31345    |    46662   
        4  | 10:22.13 |  3:39.37 |     46663    |    63124   
        5  | 14:01.50 |  4:37.69 |     63125    |    83968   
        6  | 18:39.44 |  3:37.41 |     83969    |   100284   
        7  | 22:17.10 |  3:25.73 |    100285    |   115732   
        8  | 25:43.08 |  4:55.27 |    115733    |   137884   
        9  | 30:38.35 |  3:58.48 |    137885    |   155782   
       10  | 34:37.08 |  3:35.65 |    155783    |   171972   


Range status and errors

Selected range

     Filename D:\eac\FOREIGNER\Foreigner - Head Games [MFSL UDSACD 2052].wav

     Peak level 98.7 %
     Extraction speed 3.8 X
     Range quality 100.0 %
     Test CRC A72D1B10
     Copy CRC A72D1B10
     Copy OK

No errors occurred

 
AccurateRip summary
 
Track  1  not present in database
Track  2  not present in database
Track  3  not present in database
Track  4  not present in database
Track  5  not present in database
Track  6  not present in database
Track  7  not present in database
Track  8  not present in database
Track  9  not present in database
Track 10  not present in database
 
None of the tracks are present in the AccurateRip database

End of status report

---- CUETools DB Plugin V2.1.3

[CTDB TOCID: 51K_O1QLpsKojVvRbtuOKCfAeqM-] found, Submit result: 51K_O1QLpsKojVvRbtuOKCfAeqM- has been confirmed
[e3972f5b] (3/3) Accurately ripped


==== Log checksum 4034ACF7DD7D1DD6FE30FA7894CECA84D62EAB6200C194CBC2538FB36E7FA3E2 ====



Create a new paste based on this one


Comments: