[ create a new paste ] login | about

Link: http://codepad.org/ApTcsocf    [ raw code | fork ]

Plain Text, pasted on Mar 29:
foobar2000 1.3.17 / Dynamic Range Meter 1.1.1
log date: 2018-03-29 13:28:52

--------------------------------------------------------------------------------
Analyzed: Emerson Lake & Palmer / Trilogy: New Stereo Mixes
--------------------------------------------------------------------------------

DR         Peak         RMS     Duration Track
--------------------------------------------------------------------------------
DR15      -0.04 dB   -20.36 dB      6:45 01-The Endless Enigma (Part One)
DR13      -5.67 dB   -25.70 dB      1:58 02-Fugue
DR12      -1.42 dB   -17.59 dB      2:01 03-The Endless Enigma (Part Two)
DR14      -0.35 dB   -19.64 dB      4:17 04-From The Beginning
DR16       0.00 dB   -18.98 dB      3:24 05-The Sheriff
DR15      -1.00 dB   -18.47 dB      3:46 06-Hoedown
DR13      -0.75 dB   -16.94 dB      8:59 07-Trilogy
DR13       0.00 dB   -15.73 dB      3:14 08-Living Sun
DR12      -1.00 dB   -19.68 dB      8:23 09-Abaddon’s Bolero
DR14      -0.53 dB   -19.43 dB      4:15 10-From The Beginning (Alternate Version)
--------------------------------------------------------------------------------

Number of tracks:  10
Official DR value: DR14

Samplerate:        96000 Hz
Channels:          2
Bits per sample:   24
Bitrate:           2585 kbps
Codec:             FLAC
================================================================================




Create a new paste based on this one


Comments: