[ create a new paste ] login | about

Link: http://codepad.org/ApTmTnhR    [ raw code | fork ]

Plain Text, pasted on Aug 7:
foobar2000 1.3.17 / Dynamic Range Meter 1.1.1
log date: 2018-08-06 13:23:03

--------------------------------------------------------------------------------
Analyzed: Rod Stewart / It Had To Be You... The Great American Songbook
--------------------------------------------------------------------------------

DR         Peak         RMS     Duration Track
--------------------------------------------------------------------------------
DR10      -1.16 dB   -12.45 dB      4:17 01-You Go To My Head
DR9       -1.16 dB   -12.71 dB      3:25 02-They Can't Take That Away From Me
DR11      -0.99 dB   -14.49 dB      3:48 03-The Way You Look Tonight
DR6       -1.47 dB   -10.14 dB      3:24 04-It Had To Be You
DR6       -1.45 dB    -9.00 dB      2:54 05-That Old Feeling
DR6       -1.43 dB    -8.98 dB      3:48 06-These Foolish Things
DR12      -0.99 dB   -15.33 dB      3:19 07-The Very Thought Of You
DR7       -1.43 dB   -10.07 dB      3:33 08-Moonglow
DR7       -1.46 dB   -11.64 dB      3:51 09-I'll Be Seeing You
DR7       -1.42 dB    -9.96 dB      3:27 10-Every Time We Say Goodbye
DR8       -1.04 dB   -11.23 dB      3:00 11-The Nearness Of You
DR7       -1.48 dB   -11.75 dB      3:25 12-For All We Know
DR12      -0.99 dB   -15.07 dB      3:54 13-We'll Be Together Again
DR7       -1.44 dB   -10.30 dB      3:06 14-That's All
--------------------------------------------------------------------------------

Number of tracks:  14
Official DR value: DR8

Samplerate:        44100 Hz
Channels:          2
Bits per sample:   24
Bitrate:           1520 kbps
Codec:             FLAC
================================================================================




Create a new paste based on this one


Comments: