[ create a new paste ] login | about

Link: http://codepad.org/AuqyBDjJ    [ raw code | fork ]

Plain Text, pasted on Dec 1:
foobar2000 1.6 / Dynamic Range Meter 1.1.1
log date: 2020-12-01 00:02:30

--------------------------------------------------------------------------------
Analyzed: Santana / Abraxas (SA-CD Multi-ch Hybrid Edition)
--------------------------------------------------------------------------------

DR         Peak         RMS     Duration Track
--------------------------------------------------------------------------------
DR9       -7.11 dB   -21.94 dB      4:49 01-Singing Winds, Crying Beasts
DR8       -5.02 dB   -20.05 dB      5:25 02-Black Magic Woman / Gypsy Queen
DR9       -4.83 dB   -20.94 dB      4:20 03-Oye Como Va
DR9       -5.13 dB   -20.68 dB      5:04 04-Incident at Neshabur
DR8       -4.59 dB   -19.60 dB      2:52 05-Se a Cabo
DR8       -4.69 dB   -19.69 dB      4:29 06-Mother's Daughter
DR10      -6.17 dB   -21.89 dB      4:48 07-Samba Pa Ti
DR9       -6.00 dB   -20.53 dB      4:09 08-Hope You're Feeling Better
DR9       -4.77 dB   -20.96 dB      1:33 09-El Nicoya
--------------------------------------------------------------------------------

Number of tracks:  9
Official DR value: DR9

Samplerate:        2822400 Hz / PCM Samplerate: 176400 Hz
Channels:          5
Bits per sample:   1
Bitrate:           14112 kbps
Codec:             DST64
================================================================================

--------------------------------------------------------------------------------
Analyzed: Santana / Abraxas (SA-CD Multi-ch Hybrid Edition)
--------------------------------------------------------------------------------

DR         Peak         RMS     Duration Track
--------------------------------------------------------------------------------
DR10      -5.56 dB   -18.54 dB      4:51 01-Singing Winds, Crying Beasts
DR10      -5.06 dB   -17.43 dB      5:20 02-Black Magic Woman / Gypsy Queen
DR11      -5.16 dB   -17.61 dB      4:19 03-Oye Como Va
DR9       -5.34 dB   -17.09 dB      4:59 04-Incident at Neshabur
DR9       -5.70 dB   -16.67 dB      2:52 05-Se a Cabo
DR9       -5.20 dB   -16.18 dB      4:28 06-Mother's Daughter
DR9       -5.98 dB   -17.37 dB      4:48 07-Samba Pa Ti
DR10      -5.49 dB   -16.95 dB      4:13 08-Hope You're Feeling Better
DR10      -5.74 dB   -18.35 dB      1:32 09-El Nicoya
--------------------------------------------------------------------------------

Number of tracks:  9
Official DR value: DR10

Samplerate:        2822400 Hz / PCM Samplerate: 176400 Hz
Channels:          2
Bits per sample:   1
Bitrate:           5645 kbps
Codec:             DSD64
================================================================================




Create a new paste based on this one


Comments: