[ create a new paste ] login | about

Link: http://codepad.org/Av6dSpyA    [ raw code | fork ]

Plain Text, pasted on Aug 20:
Exact Audio Copy V1.0 beta 3 from 29. August 2011

EAC extraction logfile from 4. August 2012, 9:21

Varios Artistas / Concert for George (Disc1) (R2 74546)

Used drive  : PIONEER DVD-RW  DVR-219L   Adapter: 2  ID: 0

Read mode               : Secure
Utilize accurate stream : Yes
Defeat audio cache      : Yes
Make use of C2 pointers : No

Read offset correction                      : 6
Overread into Lead-In and Lead-Out          : No
Fill up missing offset samples with silence : Yes
Delete leading and trailing silent blocks   : No
Null samples used in CRC calculations       : Yes
Used interface                              : Native Win32 interface for Win NT & 2000

Used output format              : User Defined Encoder
Selected bitrate                : 1024 kBit/s
Quality                         : High
Add ID3 tag                     : No
Command line compressor         : C:\Program Files\Exact Audio Copy\Flac\flac.exe
Additional command line options : -V -8 -T "Genre=%genre%" -T "Artist=%artist%" -T "Title=%title%" -T "Album=%albumtitle%" -T "Date=%year%" -T "Tracknumber=%tracknr%" -T "Comment=%comment%" %source%


TOC of the extracted CD

     Track |   Start  |  Length  | Start sector | End sector 
    ---------------------------------------------------------
        1  |  0:00.00 |  3:18.15 |         0    |    14864   
        2  |  3:18.15 |  8:22.55 |     14865    |    52569   
        3  | 11:40.70 |  3:01.42 |     52570    |    66186   
        4  | 14:42.37 | 23:01.73 |     66187    |   169834   


Range status and errors

Selected range

     Filename H:\dafnaplus\VA - Concert For George\Cd1\Varios Artistas - Concert for George (Disc1) (R2 74546).wav

     Peak level 98.8 %
     Extraction speed 1.5 X
     Range quality 100.0 %
     Test CRC D0A760D6
     Copy CRC D0A760D6
     Copy OK

No errors occurred

 
AccurateRip summary
 
Track  1  accurately ripped (confidence 6)  [5ED2E96F]  (AR v2)
Track  2  accurately ripped (confidence 7)  [D8856FD4]  (AR v2)
Track  3  accurately ripped (confidence 7)  [B51F4B31]  (AR v2)
Track  4  accurately ripped (confidence 7)  [A5D88CD5]  (AR v2)
 
All tracks accurately ripped

End of status report

==== Log checksum F2068F4C1B3B9A0856FDA454152646ADE6AED6C2B26B3C5F148B26E49933F7BF ====



Create a new paste based on this one


Comments: