[ create a new paste ] login | about

Link: http://codepad.org/AxeXO3Nl    [ raw code | fork ]

Plain Text, pasted on Oct 18:
foobar2000 1.4.6 / Dynamic Range Meter 1.1.1
log date: 2019-10-17 19:06:50

--------------------------------------------------------------------------------
Analyzed: HURRIGANES / ROADRUNNER
--------------------------------------------------------------------------------

DR         Peak         RMS     Duration Track
--------------------------------------------------------------------------------
DR10      -0.06 dB   -11.60 dB      3:00 01-IT AIN'T WHAT YOU DO
DR11      -0.26 dB   -12.56 dB      2:32 02-HEY GROUPIE
DR9       -0.26 dB   -11.28 dB      2:20 03-TALLAHASSEE LASSIE
DR10      -0.28 dB   -13.06 dB      1:39 04-THE PHONE RANG
DR10      -0.20 dB   -12.56 dB      2:41 05-I WILL STAY
DR9       -0.17 dB   -11.50 dB      3:47 06-GET ON
DR10      -0.26 dB   -13.34 dB      2:37 07-IN THE NUDE
DR9       -0.11 dB   -11.42 dB      4:03 08-MISTER X
DR10      -0.26 dB   -11.99 dB      2:38 09-SLIPPIN' AND SLIDIN'
DR10      -0.29 dB   -12.00 dB      2:30 10-OOWEE-OOHLA
DR10      -0.01 dB   -12.42 dB      4:16 11-ROADRUNNER
--------------------------------------------------------------------------------

Number of tracks:  11
Official DR value: DR10

Samplerate:        88200 Hz
Channels:          6
Bits per sample:   24
Bitrate:           7386 kbps
Codec:             FLAC
================================================================================




Create a new paste based on this one


Comments: