[ create a new paste ] login | about

Link: http://codepad.org/AznsD8n5    [ raw code | fork ]

Plain Text, pasted on Dec 15:
[CUETools log; Date: 12/14/2018 10:40:24 AM; Version: 2.1.5]
[CTDB TOCID: e8RaAGcmfjM37IiF5I5naWcMor8-] found.
Track | CTDB Status
  1   | (50/50) Accurately ripped
  2   | (50/50) Accurately ripped
  3   | (50/50) Accurately ripped
  4   | (50/50) Accurately ripped
  5   | (50/50) Accurately ripped
  6   | (50/50) Accurately ripped
  7   | (50/50) Accurately ripped
  8   | (50/50) Accurately ripped
  9   | (50/50) Accurately ripped
 10   | (50/50) Accurately ripped
 11   | (50/50) Accurately ripped
 12   | (49/50) Accurately ripped
[AccurateRip ID: 0016decc-00da01ba-8d0d7e0c] found.
Track   [  CRC   |   V2   ] Status
 01     [a1ed6e3f|30860b97] (06+50/56) Accurately ripped
 02     [335d9fee|6cbd0214] (06+50/56) Accurately ripped
 03     [2880e9c4|3b03f39e] (06+50/56) Accurately ripped
 04     [8ba9982b|08e54149] (05+50/55) Accurately ripped
 05     [5cfac564|f5064bd6] (06+50/56) Accurately ripped
 06     [f7c404bc|df272880] (06+50/56) Accurately ripped
 07     [71804229|ee28cfd2] (06+50/56) Accurately ripped
 08     [50cd0cfc|9d9bb09d] (06+50/56) Accurately ripped
 09     [1cf3a90f|0dd3dd2d] (06+49/55) Accurately ripped
 10     [ec80f263|5a4d1604] (06+49/55) Accurately ripped
 11     [94b6e2c5|8805027f] (06+50/56) Accurately ripped
 12     [dd59b707|85b73203] (06+50/56) Accurately ripped

Track Peak [ CRC32  ] [W/O NULL] [  LOG   ]
 --   99.9 [A371D0E9] [E6165120]   CRC32   
 01   99.8 [FDBF7051] [D7794FEC]           
 02   94.0 [45FEC326] [4165505A]           
 03   99.9 [C3DBDB70] [03CCED77]           
 04   99.6 [1643C2BF] [DA80F0BF]           
 05   99.8 [ECC4B01A] [BA13BBF7]           
 06   99.9 [3CC86637] [5BEC8243]           
 07   99.9 [A388E9EA] [D60DE8D0]           
 08   99.8 [E16E4BD1] [041B630B]           
 09   99.9 [D2ABB07C] [E133A867]           
 10   99.8 [70A2DC4A] [D6072DCD]           
 11   99.9 [2CC1797F] [84E5A867]           
 12   99.8 [888E9EDA] [A04B2984]           



Create a new paste based on this one


Comments: