[ create a new paste ] login | about

Link: http://codepad.org/AzuiJkk7    [ raw code | fork ]

Plain Text, pasted on Aug 11:
foobar2000 1.3 / Dynamic Range Meter 1.1.1
log date: 2014-10-22 13:39:11

--------------------------------------------------------------------------------
Analyzed: 10cc / Deceptive Bends (2014 SHM-SACD)
--------------------------------------------------------------------------------

DR         Peak         RMS     Duration Track
--------------------------------------------------------------------------------
DR11      -0.92 dB   -14.55 dB      2:56 01-Good Morning Judge
DR11      -1.53 dB   -15.21 dB      3:35 02-The Things We Do For Love
DR13      -1.37 dB   -17.14 dB      4:08 03-Marriage Bureau Rendezvous
DR12      -1.88 dB   -17.53 dB      3:49 04-People In Love
DR12      -0.59 dB   -16.00 dB      5:40 05-Modern Man Blues
DR12      -0.96 dB   -15.25 dB      2:50 06-Honeymoon With B Troop
DR15      -0.71 dB   -19.25 dB      1:48 07-I Bought A Flat Guitar Tutor
DR11      -0.04 dB   -14.92 dB      3:42 08-You've Got A Cold
DR11      -0.01 dB   -15.19 dB     11:34 09-Feel The Benefit: Reminisce And Speculate - A Latin Break - Feel The Benefit
DR10      -2.66 dB   -14.30 dB      4:29 10-Hot To Trot
DR11      -2.71 dB   -16.81 dB      3:37 11-Don't Squeeze Me Like Toothpaste
DR11      -2.38 dB   -14.80 dB      3:47 12-I'm So Laid Back, I'm Laid Out
--------------------------------------------------------------------------------

Number of tracks:  12
Official DR value: DR12

Samplerate:        88200 Hz
Channels:          2
Bits per sample:   24
Bitrate:           2659 kbps
Codec:             FLAC
================================================================================




Create a new paste based on this one


Comments: