[ create a new paste ] login | about

Link: http://codepad.org/B1gAoV5P    [ raw code | fork ]

Plain Text, pasted on Mar 11:
Exact Audio Copy V1.1 from 23. June 2015

EAC extraction logfile from 22. January 2017, 9:09

The Band / The Last Waltz CD3

Used drive  : PLEXTOR BD-R  PX-B950SA   Adapter: 1  ID: 1

Read mode               : Secure
Utilize accurate stream : Yes
Defeat audio cache      : Yes
Make use of C2 pointers : No

Read offset correction                      : 6
Overread into Lead-In and Lead-Out          : No
Fill up missing offset samples with silence : Yes
Delete leading and trailing silent blocks   : No
Null samples used in CRC calculations       : Yes
Used interface                              : Native Win32 interface for Win NT & 2000

Used output format : Internal WAV Routines
Sample format      : 44.100 Hz; 16 Bit; Stereo


TOC of the extracted CD

     Track |   Start  |  Length  | Start sector | End sector 
    ---------------------------------------------------------
        1  |  0:00.00 |  4:35.37 |         0    |    20661   
        2  |  4:35.37 |  2:41.13 |     20662    |    32749   
        3  |  7:16.50 |  2:55.65 |     32750    |    45939   
        4  | 10:12.40 |  3:41.55 |     45940    |    62569   
        5  | 13:54.20 |  3:29.37 |     62570    |    78281   
        6  | 17:23.57 |  5:51.03 |     78282    |   104609   
        7  | 23:14.60 |  2:58.52 |    104610    |   118011   
        8  | 26:13.37 |  4:49.43 |    118012    |   139729   
        9  | 31:03.05 |  5:32.15 |    139730    |   164644   
       10  | 36:35.20 |  9:10.62 |    164645    |   205956   
       11  | 45:46.07 |  6:19.38 |    205957    |   234419   
       12  | 52:05.45 |  1:37.47 |    234420    |   241741   


Range status and errors

Selected range

     Filename C:\The Band\1978 The Last Waltz (4CD + Blu-ray Box Set Rhino Records 2016)\CD3\The Band - The Last Waltz CD3.wav

     Peak level 100.0 %
     Extraction speed 7.0 X
     Range quality 100.0 %
     Test CRC 110474DD
     Copy CRC 110474DD
     Copy OK

No errors occurred

 
AccurateRip summary
 
Track  1  cannot be verified as accurate (confidence 66)  [A0FEF0CB], AccurateRip returned [2A8FA0A8]  (AR v2)
Track  2  cannot be verified as accurate (confidence 67)  [F0C46576], AccurateRip returned [B1E1741C]  (AR v2)
Track  3  cannot be verified as accurate (confidence 66)  [897EE494], AccurateRip returned [7C2E2E82]  (AR v2)
Track  4  cannot be verified as accurate (confidence 65)  [B530AC28], AccurateRip returned [3200DF2B]  (AR v2)
Track  5  cannot be verified as accurate (confidence 65)  [0C2A450F], AccurateRip returned [FEC4E831]  (AR v2)
Track  6  cannot be verified as accurate (confidence 62)  [5F9BA331], AccurateRip returned [F29BBD98]  (AR v2)
Track  7  cannot be verified as accurate (confidence 64)  [28C37C9B], AccurateRip returned [BC6101DA]  (AR v2)
Track  8  cannot be verified as accurate (confidence 66)  [F456C067], AccurateRip returned [B7F15AB7]  (AR v2)
Track  9  cannot be verified as accurate (confidence 63)  [E8CB090D], AccurateRip returned [C49DE9DF]  (AR v2)
Track 10  cannot be verified as accurate (confidence 61)  [7A9E49CC], AccurateRip returned [F9C74FB6]  (AR v2)
Track 11  cannot be verified as accurate (confidence 63)  [6521E021], AccurateRip returned [85A73C73]  (AR v2)
Track 12  cannot be verified as accurate (confidence 62)  [A147ECC6], AccurateRip returned [E233C8DA]  (AR v2)
 
No tracks could be verified as accurate
You may have a different pressing from the one(s) in the database

End of status report

---- CUETools DB Plugin V2.1.6

[CTDB TOCID: RDu8CBvp66oxlmIrmx3Ipgkomd4-] found
Submit result: RDu8CBvp66oxlmIrmx3Ipgkomd4- has been confirmed
Track | CTDB Status
  1   | (70/71) Accurately ripped
  2   | (71/71) Accurately ripped
  3   | (71/71) Accurately ripped
  4   | (70/71) Accurately ripped
  5   | (71/71) Accurately ripped
  6   | (71/71) Accurately ripped
  7   | (71/71) Accurately ripped
  8   | (71/71) Accurately ripped
  9   | (71/71) Accurately ripped
 10   | (71/71) Accurately ripped
 11   | (71/71) Accurately ripped
 12   | (70/71) Accurately ripped


==== Log checksum 2253D1DE5519970E17CADA528FB12365615F7EAF1650C0509F7FE4FD2316CC41 ====



Create a new paste based on this one


Comments: