[ create a new paste ] login | about

Link: http://codepad.org/B1u4EyL4    [ raw code | fork ]

Plain Text, pasted on May 8:
foobar2000 1.4.1 / Dynamic Range Meter 1.1.1
log date: 2019-05-07 19:10:29

--------------------------------------------------------------------------------
Analyzed: Miles Davis / Seven Steps To Heaven
--------------------------------------------------------------------------------

DR         Peak         RMS     Duration Track
--------------------------------------------------------------------------------
DR8      -12.05 dB   -30.02 dB     10:25 01-Basin Street Blues
DR8      -10.21 dB   -28.81 dB      6:22 02-Seven Steps To Heaven
DR8       -9.29 dB   -28.36 dB      6:44 03-I Fall In Love Too Easy
DR8       -9.84 dB   -28.48 dB      6:57 04-So Near, So Far
DR8      -11.48 dB   -29.80 dB      8:25 05-Baby, Won't You Please Come Home
DR8      -12.33 dB   -30.25 dB      7:02 06-Joshua
--------------------------------------------------------------------------------

Number of tracks:  6
Official DR value: DR8

Samplerate:        2822400 Hz / PCM Samplerate: 176400 Hz
Channels:          5
Bits per sample:   1
Bitrate:           14112 kbps
Codec:             DST64
================================================================================

--------------------------------------------------------------------------------
Analyzed: Miles Davis / Seven Steps To Heaven
--------------------------------------------------------------------------------

DR         Peak         RMS     Duration Track
--------------------------------------------------------------------------------
DR15      -5.98 dB   -24.05 dB     10:30 01-Basin Street Blues
DR13      -5.76 dB   -22.33 dB      6:26 02-Seven Steps To Heaven
DR14      -5.90 dB   -25.18 dB      6:51 03-I Fall In Love Too Easy
DR13      -5.97 dB   -22.13 dB      7:01 04-So Near, So Far
DR14      -6.78 dB   -24.93 dB      8:29 05-Baby, Won't You Please Come Home
DR13      -5.83 dB   -21.17 dB      7:01 06-Joshua
--------------------------------------------------------------------------------

Number of tracks:  6
Official DR value: DR14

Samplerate:        2822400 Hz / PCM Samplerate: 176400 Hz
Channels:          2
Bits per sample:   1
Bitrate:           5645 kbps
Codec:             DSD64
================================================================================




Create a new paste based on this one


Comments: