[ create a new paste ] login | about

Link: http://codepad.org/B3yt69iF    [ raw code | fork ]

Plain Text, pasted on Apr 6:
[CUETools log; Date: 4/6/2017 8:36:53 AM; Version: 2.1.5]
[CTDB TOCID: eadvqpcr5Zn5_7XIz5CQQ4PYxoo-] found.
Track | CTDB Status
  1   | (20/20) Accurately ripped
  2   | (20/20) Accurately ripped
  3   | (20/20) Accurately ripped
  4   | (20/20) Accurately ripped
  5   | (20/20) Accurately ripped
  6   | (20/20) Accurately ripped
  7   | (20/20) Accurately ripped
  8   | (20/20) Accurately ripped
  9   | (20/20) Accurately ripped
 10   | (20/20) Accurately ripped
[AccurateRip ID: 001c5db3-00e3d182-8711ed0a] found.
Track   [  CRC   |   V2   ] Status
 01     [e9077079|41826b2f] (0+2/2) Accurately ripped
 02     [b24fc940|e4c967ea] (0+2/2) Accurately ripped
 03     [ea73c4fb|7871a60b] (0+2/2) Accurately ripped
 04     [bdb81909|6bac55e4] (0+2/2) Accurately ripped
 05     [9f4a8520|079db357] (0+2/2) Accurately ripped
 06     [416dc743|dd1aad4a] (0+2/2) Accurately ripped
 07     [f3f32751|1ce43178] (0+2/2) Accurately ripped
 08     [7dbbf0d1|686dc192] (0+2/2) Accurately ripped
 09     [9344deee|00ce5485] (0+2/2) Accurately ripped
 10     [4a991451|abb6ad7d] (0+2/2) Accurately ripped

Track Peak [ CRC32  ] [W/O NULL] [  LOG   ]
 --   98.8 [2288BDDB] [AAE7DFD3]           
 01   98.8 [CC527CAC] [439CCFEF]   CRC32   
 02   98.8 [938CC530] [D5DB80B5]   CRC32   
 03   98.8 [E99731EA] [B2D829EB]   CRC32   
 04   98.8 [18FCF440] [1E5648F7]   CRC32   
 05   98.8 [7ECD11E6] [37BA9C7C]   CRC32   
 06   98.8 [47A0B1E8] [160C8F5A]   CRC32   
 07   98.8 [6386D5D1] [8956C95F]   CRC32   
 08   98.8 [2C781800] [FE09EE61]   CRC32   
 09   98.8 [851A9931] [0201F70C]   CRC32   
 10   98.8 [DB4A1282] [D1105C6C]   CRC32   



Create a new paste based on this one


Comments: