[ create a new paste ] login | about

Link: http://codepad.org/B4X1Ess4    [ raw code | fork ]

Plain Text, pasted on May 29:
foobar2000 1.4.4 / Dynamic Range Meter 1.1.1
log date: 2019-05-28 19:29:39

--------------------------------------------------------------------------------
Analyzed: The Rolling Stones / The Rolling Stones
--------------------------------------------------------------------------------

DR         Peak         RMS     Duration Track
--------------------------------------------------------------------------------
DR12      -0.25 dB   -13.93 dB      2:22 01-Route 66
DR12      -0.06 dB   -14.72 dB      2:19 02-I Just Want To Make Love To You
DR13      -1.13 dB   -16.87 dB      2:11 03-Honest I Do
DR13      -0.11 dB   -14.95 dB      3:36 04-I Need You Baby
DR12      -0.78 dB   -14.40 dB      2:32 05-Now I've Got A Witness
DR13      -0.22 dB   -15.72 dB      2:38 06-Little By Little
DR13      -0.65 dB   -16.35 dB      2:38 07-I'm A King Bee
DR12      -0.18 dB   -15.50 dB      2:36 08-Carol
DR13      -0.12 dB   -16.13 dB      4:08 09-Tell Me (You're Coming Back)
DR13      -0.06 dB   -15.13 dB      2:58 10-Can I Get A Witness
DR14      -0.79 dB   -16.93 dB      2:03 11-You Can Make It If You Try
DR13      -0.15 dB   -15.83 dB      3:08 12-Walking The Dog
--------------------------------------------------------------------------------

Number of tracks:  12
Official DR value: DR13

Samplerate:        96000 Hz
Channels:          2
Bits per sample:   24
Bitrate:           3065 kbps
Codec:             FLAC
================================================================================




Create a new paste based on this one


Comments: