[ create a new paste ] login | about

Link: http://codepad.org/B4sbM0JS    [ raw code | fork ]

Plain Text, pasted on May 14:
foobar2000 1.3.17 / Dynamic Range Meter 1.1.1
log date: 2018-05-14 11:44:13

--------------------------------------------------------------------------------
Analyzed: Pete Townshend / Empty Glass 
--------------------------------------------------------------------------------

DR         Peak         RMS     Duration Track
--------------------------------------------------------------------------------
DR6        0.00 dB    -7.20 dB      4:03 01-Rough Boys
DR8        0.00 dB   -10.28 dB      3:48 02-I Am An Animal
DR8        0.00 dB    -9.73 dB      3:23 03-And I Moved
DR7        0.00 dB    -9.22 dB      2:45 04-Let My Love Open The Door
DR7        0.00 dB    -8.09 dB      2:37 05-Jools And Jim
DR7        0.00 dB    -8.37 dB      3:24 06-Keep On Working
DR7        0.00 dB    -8.28 dB      3:34 07-Cat's In The Cupboard
DR7        0.00 dB    -9.34 dB      4:43 08-A Little Is Enough
DR8        0.00 dB   -10.20 dB      5:23 09-Empty Glass
DR6        0.00 dB    -7.99 dB      6:23 10-Gonna Get Ya
--------------------------------------------------------------------------------

Number of tracks:  10
Official DR value: DR7

Samplerate:        96000 Hz
Channels:          2
Bits per sample:   24
Bitrate:           3228 kbps
Codec:             FLAC
================================================================================




Create a new paste based on this one


Comments: