[ create a new paste ] login | about

Link: http://codepad.org/B6VNCzlt    [ raw code | fork ]

Plain Text, pasted on Dec 17:
Exact Audio Copy V1.0 beta 3 from 29. August 2011

EAC extraction logfile from 18. November 2016, 7:02

Black Sabbath / Live in Brussels 1970

Used drive  : HL-DT-STBD-RE  WH12LS39   Adapter: 1  ID: 1

Read mode               : Secure
Utilize accurate stream : Yes
Defeat audio cache      : Yes
Make use of C2 pointers : No

Read offset correction                      : 667
Overread into Lead-In and Lead-Out          : No
Fill up missing offset samples with silence : Yes
Delete leading and trailing silent blocks   : No
Null samples used in CRC calculations       : Yes
Used interface                              : Native Win32 interface for Win NT & 2000
Gap handling                                : Appended to previous track

Used output format              : User Defined Encoder
Selected bitrate                : 1024 kBit/s
Quality                         : High
Add ID3 tag                     : No
Command line compressor         : C:\Program Files (x86)\Exact Audio Copy\FLAC\FLAC.EXE
Additional command line options : -8 -V -T "ARTIST=%artist%" -T "TITLE=%title%" -T "ALBUM=%albumtitle%" -T "DATE=%year%" -T "TRACKNUMBER=%tracknr%" -T "GENRE=%genre%" -T "PERFORMER=%albuminterpret%" -T "COMPOSER=%composer%" %haslyrics%--tag-from-file=LYRICS="%lyricsfile%"%haslyrics% -T "ALBUMARTIST=%albumartist%" -T "DISCNUMBER=%cdnumber%" -T "TOTALDISCS=%totalcds%" -T "TOTALTRACKS=%numtracks%" -T "COMMENT=%comment%" %source% -o %dest%


TOC of the extracted CD

     Track |   Start  |  Length  | Start sector | End sector 
    ---------------------------------------------------------
        1  |  0:00.00 |  3:12.66 |         0    |    14465   
        2  |  3:12.66 |  7:00.68 |     14466    |    46033   
        3  | 10:13.59 |  1:29.23 |     46034    |    52731   
        4  | 11:43.07 |  6:31.73 |     52732    |    82129   
        5  | 18:15.05 |  9:37.60 |     82130    |   125464   
        6  | 27:52.65 |  5:49.20 |    125465    |   151659   
        7  | 33:42.10 |  5:27.68 |    151660    |   176252   
        8  | 39:10.03 |  8:03.72 |    176253    |   212549   
        9  | 47:14.00 |  6:57.13 |    212550    |   243837   


Track  1

     Filename E:\Rips\Black Sabbath\Paranoid Super Deluxe\Disc 4 - Live in Brussels 1970\01 Paranoid.wav

     Pre-gap length  0:00:02.00

     Peak level 97.0 %
     Extraction speed 0.9 X
     Track quality 99.9 %
     Test CRC A6B5E6FA
     Copy CRC A6B5E6FA
     Track not present in AccurateRip database
     Copy OK

Track  2

     Filename E:\Rips\Black Sabbath\Paranoid Super Deluxe\Disc 4 - Live in Brussels 1970\02 Hand Of Doom.wav

     Peak level 97.0 %
     Extraction speed 1.3 X
     Track quality 100.0 %
     Test CRC 4DA4C919
     Copy CRC 4DA4C919
     Track not present in AccurateRip database
     Copy OK

Track  3

     Filename E:\Rips\Black Sabbath\Paranoid Super Deluxe\Disc 4 - Live in Brussels 1970\03 Rat Salad.wav

     Peak level 97.0 %
     Extraction speed 0.8 X
     Track quality 99.8 %
     Test CRC 897840A7
     Copy CRC 897840A7
     Track not present in AccurateRip database
     Copy OK

Track  4

     Filename E:\Rips\Black Sabbath\Paranoid Super Deluxe\Disc 4 - Live in Brussels 1970\04 Iron Man.wav

     Peak level 97.0 %
     Extraction speed 1.5 X
     Track quality 100.0 %
     Test CRC DC3F15D9
     Copy CRC DC3F15D9
     Track not present in AccurateRip database
     Copy OK

Track  5

     Filename E:\Rips\Black Sabbath\Paranoid Super Deluxe\Disc 4 - Live in Brussels 1970\05 Black Sabbath.wav

     Peak level 97.0 %
     Extraction speed 1.8 X
     Track quality 100.0 %
     Test CRC 4748DD26
     Copy CRC 4748DD26
     Track not present in AccurateRip database
     Copy OK

Track  6

     Filename E:\Rips\Black Sabbath\Paranoid Super Deluxe\Disc 4 - Live in Brussels 1970\06 N.I.B..wav

     Peak level 97.0 %
     Extraction speed 1.7 X
     Track quality 99.9 %
     Test CRC C9B95665
     Copy CRC C9B95665
     Track not present in AccurateRip database
     Copy OK

Track  7

     Filename E:\Rips\Black Sabbath\Paranoid Super Deluxe\Disc 4 - Live in Brussels 1970\07 Behind The Wall Of Sleep.wav

     Peak level 97.0 %
     Extraction speed 2.0 X
     Track quality 100.0 %
     Test CRC 7E969EE1
     Copy CRC 7E969EE1
     Track not present in AccurateRip database
     Copy OK

Track  8

     Filename E:\Rips\Black Sabbath\Paranoid Super Deluxe\Disc 4 - Live in Brussels 1970\08 War Pigs.wav

     Peak level 97.0 %
     Extraction speed 2.2 X
     Track quality 100.0 %
     Test CRC 945922BA
     Copy CRC 945922BA
     Track not present in AccurateRip database
     Copy OK

Track  9

     Filename E:\Rips\Black Sabbath\Paranoid Super Deluxe\Disc 4 - Live in Brussels 1970\09 Fairies Wear Boots.wav

     Peak level 97.0 %
     Extraction speed 2.3 X
     Track quality 100.0 %
     Test CRC FEAA9543
     Copy CRC FEAA9543
     Track not present in AccurateRip database
     Copy OK


None of the tracks are present in the AccurateRip database

No errors occurred

End of status report

---- CUETools DB Plugin V2.1.4

[CTDB TOCID: 5JBLFKWs2DQ91eQGVCZtCxi5YzQ-] found
Submit result: 5JBLFKWs2DQ91eQGVCZtCxi5YzQ- has been confirmed
Track | CTDB Status
  1   | (6/6) Accurately ripped
  2   | (6/6) Accurately ripped
  3   | (6/6) Accurately ripped
  4   | (6/6) Accurately ripped
  5   | (6/6) Accurately ripped
  6   | (6/6) Accurately ripped
  7   | (6/6) Accurately ripped
  8   | (6/6) Accurately ripped
  9   | (6/6) Accurately ripped


==== Log checksum 8D8D7E7FF72204174955F767CE6C931DA3530DB599893D19647EC08A29DAB65A ====



Create a new paste based on this one


Comments: