[ create a new paste ] login | about

Link: http://codepad.org/B9880AHr    [ raw code | fork ]

Plain Text, pasted on Aug 1:
Exact Audio Copy V1.0 beta 3 from 29. August 2011

EAC extraction logfile from 15. October 2013, 21:45

The Beatles / Rubber Soul 

Used drive  : PLEXTOR DVDR   PX-891SA   Adapter: 1  ID: 0

Read mode               : Secure
Utilize accurate stream : Yes
Defeat audio cache      : Yes
Make use of C2 pointers : No

Read offset correction                      : 6
Overread into Lead-In and Lead-Out          : No
Fill up missing offset samples with silence : Yes
Delete leading and trailing silent blocks   : No
Null samples used in CRC calculations       : Yes
Used interface                              : Native Win32 interface for Win NT & 2000

Used output format              : User Defined Encoder
Selected bitrate                : 1024 kBit/s
Quality                         : High
Add ID3 tag                     : No
Command line compressor         : C:\Program Files\Exact Audio Copy\Flac\flac.exe
Additional command line options : -V -8 -T "Genre=%genre%" -T "Artist=%artist%" -T "Title=%title%" -T "Album=%albumtitle%" -T "Date=%year%" -T "Tracknumber=%tracknr%" -T "Comment=%comment%" %source%


TOC of the extracted CD

     Track |   Start  |  Length  | Start sector | End sector 
    ---------------------------------------------------------
        1  |  0:00.00 |  2:28.67 |         0    |    11166   
        2  |  2:28.67 |  2:04.52 |     11167    |    20518   
        3  |  4:33.44 |  3:19.72 |     20519    |    35515   
        4  |  7:53.41 |  2:43.52 |     35516    |    47792   
        5  | 10:37.18 |  2:18.39 |     47793    |    58181   
        6  | 12:55.57 |  2:43.08 |     58182    |    70414   
        7  | 15:38.65 |  2:42.28 |     70415    |    82592   
        8  | 18:21.18 |  2:48.43 |     82593    |    95235   
        9  | 21:09.61 |  2:31.54 |     95236    |   106614   
       10  | 23:41.40 |  2:26.29 |    106615    |   117593   
       11  | 26:07.69 |  2:26.25 |    117594    |   128568   
       12  | 28:34.19 |  2:14.54 |    128569    |   138672   
       13  | 30:48.73 |  2:22.20 |    138673    |   149342   
       14  | 33:11.18 |  2:21.07 |    149343    |   159924   
       15  | 38:04.25 | 23:20.07 |    171325    |   276331   


Range status and errors

Selected range

     Filename I:\dafnaplus\09.09.09\06 Rubber Soul\The Beatles - Rubber Soul.wav

     Peak level 95.6 %
     Extraction speed 7.4 X
     Range quality 100.0 %
     Test CRC CA2C539E
     Copy CRC CA2C539E
     Copy OK

No errors occurred

 
AccurateRip summary
 
Track  1  accurately ripped (confidence 200)  [39E1BADE]  (AR v2)
Track  2  accurately ripped (confidence 200)  [CB1E1271]  (AR v2)
Track  3  accurately ripped (confidence 200)  [1EEEB5D9]  (AR v2)
Track  4  accurately ripped (confidence 200)  [FFC6A9F6]  (AR v2)
Track  5  accurately ripped (confidence 200)  [ECF488F6]  (AR v2)
Track  6  accurately ripped (confidence 200)  [8CBB1EF6]  (AR v2)
Track  7  accurately ripped (confidence 200)  [2CB84673]  (AR v2)
Track  8  accurately ripped (confidence 200)  [1D4A0F85]  (AR v2)
Track  9  accurately ripped (confidence 200)  [7AE6E742]  (AR v2)
Track 10  accurately ripped (confidence 200)  [3CE66E4D]  (AR v2)
Track 11  accurately ripped (confidence 200)  [F51002A4]  (AR v2)
Track 12  accurately ripped (confidence 200)  [843F7CB4]  (AR v2)
Track 13  accurately ripped (confidence 200)  [430A12F2]  (AR v2)
Track 14  accurately ripped (confidence 200)  [2345B73A]  (AR v2)
 
All tracks accurately ripped

End of status report

==== Log checksum 161F8E891F065DBBBC09DEFEE301B6E050A426E63CCB8899E6A9FB727669AF78 ====



Create a new paste based on this one


Comments: