[ create a new paste ] login | about

Link: http://codepad.org/BBaN0x0T    [ raw code | fork ]

Plain Text, pasted on Jan 14:
Disc Label:     GENTLE GIANT 1ST ALBUM
Disc Size:      18,191,496,636 bytes
Protection:     AACS
BDInfo:         0.7.5.5

Notes:          

BDINFO HOME:
  Cinema Squid (old)
    http://www.cinemasquid.com/blu-ray/tools/bdinfo
  UniqProject GitHub (new)
   https://github.com/UniqProject/BDInfo

INCLUDES FORUMS REPORT FOR:
  AVS Forum Blu-ray Audio and Video Specifications Thread
    http://www.avsforum.com/avs-vb/showthread.php?t=1155731


********************
PLAYLIST: 00000.MPLS
********************

<--- BEGIN FORUMS PASTE --->
[code]
                                                                                                                Total   Video                                             
Title                                                           Codec   Length  Movie Size      Disc Size       Bitrate Bitrate Main Audio Track                          Secondary Audio Track
-----                                                           ------  ------- --------------  --------------  ------- ------- ------------------                        ---------------------
00000.MPLS                                                      AVC     0:37:00 11,760,879,168  18,191,496,636  42.37   14.99   LPCM 2.0 4608Kbps (96kHz/24-bit)          DTS-HD Master 5.1 6485Kbps (96kHz/24-bit)
[/code]

[code]

DISC INFO:

Disc Label:     GENTLE GIANT 1ST ALBUM
Disc Size:      18,191,496,636 bytes
Protection:     AACS
BDInfo:         0.7.5.5

PLAYLIST REPORT:

Name:                   00000.MPLS
Length:                 0:37:00.426 (h:m:s.ms)
Size:                   11,760,879,168 bytes
Total Bitrate:          42.37 Mbps

VIDEO:

Codec                   Bitrate             Description     
-----                   -------             -----------     
MPEG-4 AVC Video        14992 kbps          1080p / 23.976 fps / 16:9 / High Profile 4.1

AUDIO:

Codec                           Language        Bitrate         Description     
-----                           --------        -------         -----------     
LPCM Audio                      English         4608 kbps       2.0 / 96 kHz /  4608 kbps / 24-bit
DTS-HD Master Audio             English         6485 kbps       5.1 / 96 kHz /  6485 kbps / 24-bit (DTS Core: 6.1 / 48 kHz /  1509 kbps / 24-bit)
LPCM Audio                      English         13824 kbps      5.1 / 96 kHz / 13824 kbps / 24-bit

FILES:

Name            Time In         Length          Size            Total Bitrate   
----            -------         ------          ----            -------------   
00000.M2TS      0:00:00.000     0:36:59.425     11,760,854,592  42,392          
00007.M2TS      0:36:59.425     0:00:01.000     24,576          196             

CHAPTERS:

Number          Time In         Length          Avg Video Rate  Max 1-Sec Rate  Max 1-Sec Time  Max 5-Sec Rate  Max 5-Sec Time  Max 10Sec Rate  Max 10Sec Time  Avg Frame Size  Max Frame Size  Max Frame Time  
------          -------         ------          --------------  --------------  --------------  --------------  --------------  --------------  --------------  --------------  --------------  --------------  
1               0:00:00.000     0:06:25.760     14,941 kbps     21,401 kbps     00:00:03.712    16,451 kbps     00:03:12.442    15,737 kbps     00:04:55.837    77,885 bytes    791,946 bytes   00:00:02.794    
2               0:06:25.760     0:04:27.600     15,032 kbps     21,181 kbps     00:08:54.075    16,462 kbps     00:08:51.030    15,806 kbps     00:08:49.862    78,369 bytes    785,346 bytes   00:07:49.844    
3               0:10:53.361     0:06:00.610     15,047 kbps     21,151 kbps     00:11:58.217    16,476 kbps     00:12:31.625    15,828 kbps     00:11:54.964    78,447 bytes    785,496 bytes   00:15:43.692    
4               0:16:53.971     0:03:47.685     14,958 kbps     20,985 kbps     00:19:31.920    16,277 kbps     00:20:21.595    15,598 kbps     00:20:21.386    77,987 bytes    784,445 bytes   00:18:45.916    
5               0:20:41.657     0:09:03.751     15,086 kbps     21,309 kbps     00:28:24.202    16,563 kbps     00:28:30.750    15,914 kbps     00:25:57.055    78,650 bytes    784,928 bytes   00:28:53.982    
6               0:29:45.408     0:05:28.161     14,963 kbps     21,076 kbps     00:31:02.485    16,381 kbps     00:31:01.359    15,727 kbps     00:30:57.313    78,009 bytes    784,598 bytes   00:30:46.219    
7               0:35:13.569     0:01:45.855     14,730 kbps     21,146 kbps     00:35:57.947    16,428 kbps     00:35:55.862    15,740 kbps     00:35:54.694    76,858 bytes    782,731 bytes   00:36:26.767    
8               0:36:59.425     0:00:01.000     75 kbps         0 kbps          00:00:00.000    0 kbps          00:00:00.000    0 kbps          00:00:00.000    407 bytes       2,424 bytes     00:37:00.176    

STREAM DIAGNOSTICS:

File            PID             Type            Codec           Language                Seconds                 Bitrate                 Bytes           Packets         
----            ---             ----            -----           --------                --------------          --------------          -------------   -----           
00000.M2TS      4113 (0x1011)   0x1B            AVC                                     2219.342                15,000                  4,161,277,093   22,647,614      
00000.M2TS      4352 (0x1100)   0x80            LPCM            eng (English)           2219.342                4,614                   1,280,141,268   7,102,032       
00000.M2TS      4353 (0x1101)   0x86            DTS-HD MA       eng (English)           2219.342                6,489                   1,800,026,236   10,124,329      
00000.M2TS      4354 (0x1102)   0x80            LPCM            eng (English)           2219.342                13,831                  3,836,872,788   21,306,096      
00007.M2TS      4113 (0x1011)   0x1B            AVC                                     0.876                   108                     11,791          72              

[/code]
<---- END FORUMS PASTE ---->

QUICK SUMMARY:

Disc Label: GENTLE GIANT 1ST ALBUM
Disc Size: 18,191,496,636 bytes
Protection: AACS
Playlist: 00000.MPLS
Size: 11,760,879,168 bytes
Length: 0:37:00.426
Total Bitrate: 42.37 Mbps
Video: MPEG-4 AVC Video / 14992 kbps / 1080p / 23.976 fps / 16:9 / High Profile 4.1
Audio: English / LPCM Audio / 2.0 / 96 kHz /  4608 kbps / 24-bit
Audio: English / DTS-HD Master Audio / 5.1 / 96 kHz /  6485 kbps / 24-bit (DTS Core: 6.1 / 48 kHz /  1509 kbps / 24-bit)
Audio: English / LPCM Audio / 5.1 / 96 kHz / 13824 kbps / 24-bit


********************
PLAYLIST: 00001.MPLS
********************

<--- BEGIN FORUMS PASTE --->
[code]
                                                                                                                Total   Video                                             
Title                                                           Codec   Length  Movie Size      Disc Size       Bitrate Bitrate Main Audio Track                          Secondary Audio Track
-----                                                           ------  ------- --------------  --------------  ------- ------- ------------------                        ---------------------
00001.MPLS                                                      AVC     0:37:00 5,726,230,080   18,191,496,636  20.63   14.99   LPCM 2.0 4608Kbps (96kHz/24-bit)          
[/code]

[code]

DISC INFO:

Disc Label:     GENTLE GIANT 1ST ALBUM
Disc Size:      18,191,496,636 bytes
Protection:     AACS
BDInfo:         0.7.5.5

PLAYLIST REPORT:

Name:                   00001.MPLS
Length:                 0:37:00.426 (h:m:s.ms)
Size:                   5,726,230,080 bytes
Total Bitrate:          20.63 Mbps

VIDEO:

Codec                   Bitrate             Description     
-----                   -------             -----------     
MPEG-4 AVC Video        14992 kbps          1080p / 23.976 fps / 16:9 / High Profile 4.1

AUDIO:

Codec                           Language        Bitrate         Description     
-----                           --------        -------         -----------     
LPCM Audio                      English         4608 kbps       2.0 / 96 kHz /  4608 kbps / 24-bit

FILES:

Name            Time In         Length          Size            Total Bitrate   
----            -------         ------          ----            -------------   
00001.M2TS      0:00:00.000     0:36:59.425     5,726,205,504   20,640          
00007.M2TS      0:36:59.425     0:00:01.000     24,576          196             

CHAPTERS:

Number          Time In         Length          Avg Video Rate  Max 1-Sec Rate  Max 1-Sec Time  Max 5-Sec Rate  Max 5-Sec Time  Max 10Sec Rate  Max 10Sec Time  Avg Frame Size  Max Frame Size  Max Frame Time  
------          -------         ------          --------------  --------------  --------------  --------------  --------------  --------------  --------------  --------------  --------------  --------------  
1               0:00:00.000     0:06:25.760     14,941 kbps     21,401 kbps     00:00:03.712    16,451 kbps     00:03:12.442    15,737 kbps     00:04:55.837    77,885 bytes    791,946 bytes   00:00:02.794    
2               0:06:25.760     0:04:27.600     15,032 kbps     21,181 kbps     00:08:54.075    16,462 kbps     00:08:51.030    15,806 kbps     00:08:49.862    78,369 bytes    785,346 bytes   00:07:49.844    
3               0:10:53.361     0:06:00.610     15,047 kbps     21,151 kbps     00:11:58.217    16,476 kbps     00:12:31.625    15,828 kbps     00:11:54.964    78,447 bytes    785,496 bytes   00:15:43.692    
4               0:16:53.971     0:03:47.685     14,958 kbps     20,985 kbps     00:19:31.920    16,277 kbps     00:20:21.595    15,598 kbps     00:20:21.386    77,987 bytes    784,445 bytes   00:18:45.916    
5               0:20:41.657     0:09:03.751     15,086 kbps     21,309 kbps     00:28:24.202    16,563 kbps     00:28:30.750    15,914 kbps     00:25:57.055    78,650 bytes    784,928 bytes   00:28:53.982    
6               0:29:45.408     0:05:28.161     14,963 kbps     21,076 kbps     00:31:02.485    16,381 kbps     00:31:01.359    15,727 kbps     00:30:57.313    78,009 bytes    784,598 bytes   00:30:46.219    
7               0:35:13.569     0:01:45.855     14,730 kbps     21,146 kbps     00:35:57.947    16,428 kbps     00:35:55.862    15,740 kbps     00:35:54.694    76,858 bytes    782,731 bytes   00:36:26.767    
8               0:36:59.425     0:00:01.000     75 kbps         0 kbps          00:00:00.000    0 kbps          00:00:00.000    0 kbps          00:00:00.000    407 bytes       2,424 bytes     00:37:00.176    

STREAM DIAGNOSTICS:

File            PID             Type            Codec           Language                Seconds                 Bitrate                 Bytes           Packets         
----            ---             ----            -----           --------                --------------          --------------          -------------   -----           
00001.M2TS      4113 (0x1011)   0x1B            AVC                                     2219.342                15,000                  4,161,277,093   22,647,614      
00001.M2TS      4352 (0x1100)   0x80            LPCM            eng (English)           2219.342                4,614                   1,280,141,268   7,102,032       
00007.M2TS      4113 (0x1011)   0x1B            AVC                                     0.876                   108                     11,791          72              

[/code]
<---- END FORUMS PASTE ---->

QUICK SUMMARY:

Disc Label: GENTLE GIANT 1ST ALBUM
Disc Size: 18,191,496,636 bytes
Protection: AACS
Playlist: 00001.MPLS
Size: 5,726,230,080 bytes
Length: 0:37:00.426
Total Bitrate: 20.63 Mbps
Video: MPEG-4 AVC Video / 14992 kbps / 1080p / 23.976 fps / 16:9 / High Profile 4.1
Audio: English / LPCM Audio / 2.0 / 96 kHz /  4608 kbps / 24-bit


********************
PLAYLIST: 00003.MPLS
********************

<--- BEGIN FORUMS PASTE --->
[code]
                                                                                                                Total   Video                                             
Title                                                           Codec   Length  Movie Size      Disc Size       Bitrate Bitrate Main Audio Track                          Secondary Audio Track
-----                                                           ------  ------- --------------  --------------  ------- ------- ------------------                        ---------------------
00003.MPLS                                                      AVC     0:00:21 16,331,904      18,191,496,636  5.96    5.61                                              
[/code]

[code]

DISC INFO:

Disc Label:     GENTLE GIANT 1ST ALBUM
Disc Size:      18,191,496,636 bytes
Protection:     AACS
BDInfo:         0.7.5.5

PLAYLIST REPORT:

Name:                   00003.MPLS
Length:                 0:00:21.938 (h:m:s.ms)
Size:                   16,331,904 bytes
Total Bitrate:          5.96 Mbps

VIDEO:

Codec                   Bitrate             Description     
-----                   -------             -----------     
MPEG-4 AVC Video        5612 kbps           1080p / 23.976 fps / 16:9 / High Profile 4.1

FILES:

Name            Time In         Length          Size            Total Bitrate   
----            -------         ------          ----            -------------   
00004.M2TS      0:00:00.000     0:00:10.009     2,666,496       2,131           
00005.M2TS      0:00:10.009     0:00:04.879     267,840         435             
00006.M2TS      0:00:14.889     0:00:06.047     13,372,992      17,569          
00007.M2TS      0:00:20.937     0:00:01.000     24,576          196             

CHAPTERS:

Number          Time In         Length          Avg Video Rate  Max 1-Sec Rate  Max 1-Sec Time  Max 5-Sec Rate  Max 5-Sec Time  Max 10Sec Rate  Max 10Sec Time  Avg Frame Size  Max Frame Size  Max Frame Time  
------          -------         ------          --------------  --------------  --------------  --------------  --------------  --------------  --------------  --------------  --------------  --------------  
1               0:00:00.000     0:00:21.938     5,634 kbps      44,183 kbps     00:00:16.433    20,152 kbps     00:00:14.556    10,776 kbps     00:00:08.049    29,540 bytes    275,451 bytes   00:00:16.891    

STREAM DIAGNOSTICS:

File            PID             Type            Codec           Language                Seconds                 Bitrate                 Bytes           Packets         
----            ---             ----            -----           --------                --------------          --------------          -------------   -----           
00004.M2TS      4113 (0x1011)   0x1B            AVC                                     9.927                   1,988                   2,466,358       13,535          
00005.M2TS      4113 (0x1011)   0x1B            AVC                                     4.796                   356                     213,648         1,227           
00006.M2TS      4113 (0x1011)   0x1B            AVC                                     5.964                   17,116                  12,760,257      69,441          
00007.M2TS      4113 (0x1011)   0x1B            AVC                                     0.876                   108                     11,791          72              

[/code]
<---- END FORUMS PASTE ---->

QUICK SUMMARY:

Disc Label: GENTLE GIANT 1ST ALBUM
Disc Size: 18,191,496,636 bytes
Protection: AACS
Playlist: 00003.MPLS
Size: 16,331,904 bytes
Length: 0:00:21.938
Total Bitrate: 5.96 Mbps
Video: MPEG-4 AVC Video / 5612 kbps / 1080p / 23.976 fps / 16:9 / High Profile 4.1




Create a new paste based on this one


Comments: