[ create a new paste ] login | about

Link: http://codepad.org/BFmPYJ6z    [ raw code | fork ]

Plain Text, pasted on Oct 17:
foobar2000 1.3.17 / Dynamic Range Meter 1.1.1
log date: 2018-10-17 10:28:02

--------------------------------------------------------------------------------
Analyzed: The Monkees / Christmas Party
--------------------------------------------------------------------------------

DR         Peak         RMS     Duration Track
--------------------------------------------------------------------------------
DR6       -0.03 dB    -8.10 dB      3:32 01-Unwrap You At Christmas
DR7       -0.14 dB    -9.16 dB      3:15 02-What Would Santa Do
DR8       -0.15 dB    -9.41 dB      2:25 03-Mele Kalikimaka
DR7       -0.16 dB    -7.79 dB      2:52 04-House Of Broken Gingerbread
DR9       -0.18 dB   -10.83 dB      3:40 05-The Christmas Song
DR7       -0.15 dB    -8.90 dB      3:05 06-Christmas Party
DR9       -0.14 dB   -10.25 dB      2:38 07-Jesus Christ
DR6       -0.11 dB    -7.88 dB      3:31 08-I Wish It Could Be Christmas Every Day
DR8       -0.18 dB   -10.29 dB      3:27 09-Silver Bells
DR10      -0.17 dB   -11.11 dB      3:34 10-Wonderful Christmastime
DR8       -1.20 dB   -11.16 dB      2:55 11-Snowfall
DR8       -0.20 dB    -9.44 dB      2:48 12-Angels We Have Heard On High
DR7       -0.06 dB    -8.17 dB      2:58 13-Merry Christmas, Baby
--------------------------------------------------------------------------------

Number of tracks:  13
Official DR value: DR8

Samplerate:        48000 Hz
Channels:          2
Bits per sample:   24
Bitrate:           1732 kbps
Codec:             FLAC
================================================================================




Create a new paste based on this one


Comments: