[ create a new paste ] login | about

Link: http://codepad.org/BG53Zawt    [ raw code | fork ]

Plain Text, pasted on Jun 13:
Exact Audio Copy V1.0 beta 2 from 29. April 2011

EAC extraction logfile from 3. July 2011, 0:59

Michael Jackson / Looking Back To Yesterday / Farewell My Summer Love

Used drive  : HL-DT-STDVDRAM GSA-H60N   Adapter: 2  ID: 0

Read mode               : Secure
Utilize accurate stream : Yes
Defeat audio cache      : Yes
Make use of C2 pointers : No

Read offset correction                      : 667
Overread into Lead-In and Lead-Out          : No
Fill up missing offset samples with silence : Yes
Delete leading and trailing silent blocks   : No
Null samples used in CRC calculations       : Yes
Used interface                              : Native Win32 interface for Win NT & 2000

Used output format : Internal WAV Routines
Sample format      : 44.100 Hz; 16 Bit; Stereo


TOC of the extracted CD

     Track |   Start  |  Length  | Start sector | End sector 
    ---------------------------------------------------------
        1  |  0:00.00 |  2:40.70 |         0    |    12069   
        2  |  2:40.70 |  2:47.63 |     12070    |    24657   
        3  |  5:28.58 |  3:04.06 |     24658    |    38463   
        4  |  8:32.64 |  3:25.60 |     38464    |    53898   
        5  | 11:58.49 |  3:11.53 |     53899    |    68276   
        6  | 15:10.27 |  2:41.74 |     68277    |    80425   
        7  | 17:52.26 |  3:17.25 |     80426    |    95225   
        8  | 21:09.51 |  3:25.37 |     95226    |   110637   
        9  | 24:35.13 |  2:58.06 |    110638    |   123993   
       10  | 27:33.19 |  2:52.11 |    123994    |   136904   
       11  | 30:25.30 |  3:20.26 |    136905    |   151930   
       12  | 33:45.56 |  3:05.48 |    151931    |   165853   
       13  | 36:51.29 |  4:05.39 |    165854    |   184267   
       14  | 40:56.68 |  2:50.11 |    184268    |   197028   
       15  | 43:47.04 |  3:17.39 |    197029    |   211842   
       16  | 47:04.43 |  3:02.29 |    211843    |   225521   
       17  | 50:06.72 |  3:30.23 |    225522    |   241294   
       18  | 53:37.20 |  3:23.60 |    241295    |   256579   
       19  | 57:01.05 |  2:47.62 |    256580    |   269166   
       20  | 59:48.67 |  3:11.55 |    269167    |   283546   
       21  | 63:00.47 |  4:23.74 |    283547    |   303345   
       22  | 67:24.46 |  3:39.10 |    303346    |   319780   
       23  | 71:03.56 |  2:56.10 |    319781    |   332990   
       24  | 73:59.66 |  4:04.33 |    332991    |   351323   


Range status and errors

Selected range

     Filename C:\Documents and Settings\2011 Dear Michael 12 SHM-CD\Disc 3 Looking Back To Yesterday - Farewell My Summer Love\Looking Back To Yesterday - Farewell My Summer Love.wav

     Peak level 100.0 %
     Extraction speed 6.3 X
     Range quality 100.0 %
     Test CRC 9DDFB000
     Copy CRC 9DDFB000
     Copy OK

No errors occurred

 
AccurateRip summary
 
Track  1  accurately ripped (confidence 2)  [A1661D79]  (AR v1)
Track  2  accurately ripped (confidence 2)  [7E0809D4]  (AR v1)
Track  3  accurately ripped (confidence 2)  [DC071F46]  (AR v1)
Track  4  accurately ripped (confidence 2)  [6E847A50]  (AR v1)
Track  5  accurately ripped (confidence 2)  [1C06D352]  (AR v1)
Track  6  accurately ripped (confidence 2)  [1A12FD9D]  (AR v1)
Track  7  accurately ripped (confidence 2)  [35041638]  (AR v1)
Track  8  accurately ripped (confidence 2)  [3777F9E4]  (AR v1)
Track  9  accurately ripped (confidence 2)  [9E4D8EC4]  (AR v1)
Track 10  cannot be verified as accurate (confidence 2)  [5E384864], AccurateRip returned [21D0D04C]  (AR v2)
Track 11  accurately ripped (confidence 2)  [5BF3C838]  (AR v1)
Track 12  accurately ripped (confidence 2)  [B3A52186]  (AR v1)
Track 13  accurately ripped (confidence 2)  [465C22EB]  (AR v1)
Track 14  accurately ripped (confidence 2)  [CA56FB14]  (AR v1)
Track 15  accurately ripped (confidence 2)  [1131D6F6]  (AR v1)
Track 16  accurately ripped (confidence 2)  [60EB8AA0]  (AR v1)
Track 17  accurately ripped (confidence 2)  [0D17BA47]  (AR v1)
Track 18  accurately ripped (confidence 2)  [CDA62A45]  (AR v1)
Track 19  accurately ripped (confidence 2)  [7A82CDC0]  (AR v1)
Track 20  accurately ripped (confidence 2)  [763BFD18]  (AR v1)
Track 21  accurately ripped (confidence 2)  [8381317B]  (AR v1)
Track 22  accurately ripped (confidence 2)  [FA5B6546]  (AR v1)
Track 23  accurately ripped (confidence 2)  [45D39710]  (AR v1)
Track 24  accurately ripped (confidence 2)  [68805AAC]  (AR v1)
 
23 track(s) accurately ripped
 1 track(s) could not be verified as accurate

Some tracks could not be verified as accurate

End of status report


==== Log checksum 8BF14055B0419C0DB27A76A00D43623E0981C19E797D52A12CC50E95619150CE ====



Create a new paste based on this one


Comments: