[ create a new paste ] login | about

Link: http://codepad.org/BIlfXxFY    [ raw code | fork ]

Plain Text, pasted on Jan 4:
foobar2000 1.5 / Dynamic Range Meter 1.1.1
log date: 2020-01-04 18:25:02

--------------------------------------------------------------------------------
Analyzed: Barry Manilow / I
--------------------------------------------------------------------------------

DR         Peak         RMS     Duration Track
--------------------------------------------------------------------------------
DR13     -10.15 dB   -26.50 dB      1:16 01-Sing It
DR12      -1.88 dB   -16.79 dB      2:29 02-Sweetwater Jones
DR15      -0.67 dB   -19.81 dB      2:26 03-Cloudburst
DR12      -3.13 dB   -17.82 dB      2:50 04-One Of These Days
DR14      -0.05 dB   -15.62 dB      3:28 05-Oh My Lady
DR14      -2.78 dB   -21.81 dB      2:15 06-I Am Your Child
DR12      -0.34 dB   -16.26 dB      6:48 07-Could It Be Magic
DR14      -0.73 dB   -19.28 dB      3:35 08-Seven More Years
DR13      -0.39 dB   -14.79 dB      3:53 09-Flashy Lady
DR14      -1.18 dB   -18.13 dB      3:05 10-Friends
DR13      -0.05 dB   -16.81 dB      3:49 11-Sweet Life
--------------------------------------------------------------------------------

Number of tracks:  11
Official DR value: DR13

Samplerate:        96000 Hz
Channels:          2
Bits per sample:   24
Bitrate:           3066 kbps
Codec:             FLAC
================================================================================




Create a new paste based on this one


Comments: