[ create a new paste ] login | about

Link: http://codepad.org/BL9LLnxO    [ raw code | fork ]

Plain Text, pasted on Jan 17:
Exact Audio Copy V0.99 prebeta 4 from 23. January 2008

EAC extraction logfile from 7. January 2010, 1:12

Tina Turner / All The Best

Used drive  : ASUS    DRW-2014S1T   Adapter: 3  ID: 0

Read mode               : Secure
Utilize accurate stream : Yes
Defeat audio cache      : Yes
Make use of C2 pointers : No

Read offset correction                      : 6
Overread into Lead-In and Lead-Out          : No
Fill up missing offset samples with silence : Yes
Delete leading and trailing silent blocks   : No
Null samples used in CRC calculations       : Yes
Used interface                              : Installed external ASPI interface

Used output format : Internal WAV Routines
Sample format      : 44.100 Hz; 16 Bit; Stereo


TOC of the extracted CD

     Track |   Start  |  Length  | Start sector | End sector 
    ---------------------------------------------------------
        1  |  0:00.00 |  4:03.53 |         0    |    18277   
        2  |  4:03.53 |  2:58.04 |     18278    |    31631   
        3  |  7:01.57 |  4:28.21 |     31632    |    51752   
        4  | 11:30.03 |  4:39.03 |     51753    |    72680   
        5  | 16:09.06 |  5:30.19 |     72681    |    97449   
        6  | 21:39.25 |  3:41.28 |     97450    |   114052   
        7  | 25:20.53 |  3:44.45 |    114053    |   130897   
        8  | 29:05.23 |  5:18.52 |    130898    |   154799   
        9  | 34:24.00 |  4:26.35 |    154800    |   174784   
       10  | 38:50.35 |  4:44.68 |    174785    |   196152   
       11  | 43:35.28 |  3:43.64 |    196153    |   212941   
       12  | 47:19.17 |  4:43.47 |    212942    |   234213   
       13  | 52:02.64 |  4:20.53 |    234214    |   253766   
       14  | 56:23.42 |  3:58.17 |    253767    |   271633   
       15  | 60:21.59 |  5:26.61 |    271634    |   296144   
       16  | 65:48.45 |  5:22.29 |    296145    |   320323   


Range status and errors

Selected range

     Filename C:\òåìû òîððåíòà\TINA\CD1\Tina Turner - All The Best (CD 1).wav

     Peak level 98.9 %
     Range quality 99.9 %
     Copy CRC 7CC07290
     Copy OK

No errors occurred

 
AccurateRip summary
 
Track  1  accurately ripped (confidence 130)  [3BCC75DB]
Track  2  accurately ripped (confidence 135)  [3571106F]
Track  3  accurately ripped (confidence 131)  [FBA71814]
Track  4  accurately ripped (confidence 131)  [9A9E24C7]
Track  5  accurately ripped (confidence 131)  [CB4B3221]
Track  6  accurately ripped (confidence 130)  [7D1D346B]
Track  7  accurately ripped (confidence 126)  [CC228245]
Track  8  accurately ripped (confidence 127)  [F98C7792]
Track  9  accurately ripped (confidence 125)  [B2B0599E]
Track 10  accurately ripped (confidence 124)  [7030A83D]
Track 11  accurately ripped (confidence 131)  [CB2E9034]
Track 12  accurately ripped (confidence 128)  [9080F359]
Track 13  accurately ripped (confidence 129)  [4AD22F91]
Track 14  accurately ripped (confidence 128)  [E3FC2A1E]
Track 15  accurately ripped (confidence 129)  [E941935F]
Track 16  accurately ripped (confidence 120)  [D8253B94]
 
All tracks accurately ripped

End of status report



Create a new paste based on this one


Comments: