[ create a new paste ] login | about

Link: http://codepad.org/BLc7XDcP    [ raw code | fork ]

Plain Text, pasted on Oct 11:
foobar2000 1.4.6 / Dynamic Range Meter 1.1.1
log date: 2019-10-11 11:29:03

--------------------------------------------------------------------------------
Analyzed: Freddie Mercury / Never Boring (Deluxe)
--------------------------------------------------------------------------------

DR         Peak         RMS     Duration Track
--------------------------------------------------------------------------------
DR6       -0.10 dB    -8.23 dB      3:26 01-The Great Pretender (Special Edition)
DR7       -0.09 dB    -8.72 dB      3:39 02-I Was Born To Love You (Special Edition)
DR6       -0.10 dB   -10.09 dB      5:42 03-Barcelona (2012 Orchestrated Version)
DR7       -0.10 dB    -9.13 dB      3:52 04-In My Defence (2000 Remix)
DR7       -0.05 dB    -8.81 dB      4:29 05-Love Kills (Special Edition)
DR6       -0.07 dB    -8.37 dB      3:58 06-How Can I Go On (2012 Orchestrated Version / Single Version)
DR7       -0.09 dB    -9.07 dB      3:45 07-Love Me Like There's No Tomorrow (Special Edition)
DR9       -0.10 dB    -9.94 dB      3:37 08-Living On My Own (No More Brothers Radio Mix)
DR7       -0.09 dB   -10.80 dB      5:12 09-The Golden Boy (2012 Orchestrated Version / Single Edit)
DR9       -0.15 dB   -12.23 dB      3:19 10-Time Waits For No One
DR7       -0.09 dB    -8.03 dB      3:25 11-She Blows Hot And Cold (Special Edition)
DR7       -0.06 dB    -8.72 dB      4:07 12-Made In Heaven (Special Edition)
DR8       -0.09 dB    -9.26 dB      3:42 13-Let's Turn It On (Special Edition)
DR7       -0.06 dB    -8.72 dB      4:07 14-Made In Heaven (Special Edition)
DR7       -0.09 dB    -8.72 dB      3:39 15-I Was Born To Love You (Special Edition)
DR9       -0.06 dB   -10.30 dB      3:30 16-Foolin' Around (Special Edition)
DR8       -0.10 dB   -10.22 dB      3:35 17-Your Kind Of Lover (Special Edition)
DR8       -0.09 dB   -10.58 dB      4:10 18-Mr. Bad Guy (Special Edition)
DR8       -0.09 dB    -9.26 dB      4:10 19-Man Made Paradise (Special Edition)
DR7       -0.10 dB    -9.98 dB      3:02 20-There Must Be More To Life Than This (Special Edition)
DR8       -0.09 dB    -9.96 dB      3:24 21-Living On My Own (Special Edition)
DR7       -0.09 dB    -9.22 dB      3:44 22-My Love Is Dangerous (Special Edition)
DR7       -0.09 dB    -9.07 dB      3:45 23-Love Me Like There's No Tomorrow (Special Edition)
DR8       -1.00 dB   -13.29 dB      5:45 24-Barcelona (New Orchestrated Version)
DR10      -1.01 dB   -16.13 dB      4:52 25-La Japonaise (New Orchestrated Version)
DR9       -1.00 dB   -12.62 dB      5:47 26-The Fallen Priest (New Orchestrated Version)
DR12      -1.00 dB   -17.05 dB      4:23 27-EnsueƱo (New Orchestrated Version)
DR8       -1.00 dB   -12.67 dB      6:04 28-The Golden Boy (New Orchestrated Version)
DR8       -1.00 dB   -13.65 dB      2:50 29-Guide Me Home (New Orchestrated Version)
DR7       -1.00 dB    -9.96 dB      3:50 30-How Can I Go On (New Orchestrated Version)
DR10      -1.53 dB   -16.38 dB      3:57 31-Exercises In Free Love (New Orchestrated Version)
DR8       -1.00 dB   -13.90 dB      6:45 32-Overture Piccante (New Orchestrated Version)
--------------------------------------------------------------------------------

Number of tracks:  32
Official DR value: DR8

Samplerate:        48000 Hz
Channels:          2
Bits per sample:   24
Bitrate:           1627 kbps
Codec:             FLAC
================================================================================




Create a new paste based on this one


Comments: