[ create a new paste ] login | about

Link: http://codepad.org/BOzs87V6    [ raw code | fork ]

Plain Text, pasted on May 12:
[CUETools log; Date: 10/23/2015 12:26:56 PM; Version: 2.1.5]
[CTDB TOCID: sqwEWaqvNBQtzbXSCpkGc9iiTgo-] found.
Track | CTDB Status
  1   | (11/11) Accurately ripped
  2   | (11/11) Accurately ripped
  3   | (11/11) Accurately ripped
  4   | (11/11) Accurately ripped
  5   | (11/11) Accurately ripped
  6   | (11/11) Accurately ripped
  7   | (11/11) Accurately ripped
  8   | (11/11) Accurately ripped
  9   | (11/11) Accurately ripped
 10   | (11/11) Accurately ripped
 11   | (11/11) Accurately ripped
 12   | (11/11) Accurately ripped
[AccurateRip ID: 001b289b-00ffcd6c-be0e840c] found.
Track   [  CRC   |   V2   ] Status
 01     [1ab43d57|ec4391cb] (00+14/14) Accurately ripped
 02     [1ba1abd7|9c9a9ac7] (00+14/14) Accurately ripped
 03     [37575064|dcd33cc5] (00+14/14) Accurately ripped
 04     [02e37b75|e76ae820] (00+14/14) Accurately ripped
 05     [398e35d2|63c30894] (00+14/14) Accurately ripped
 06     [3d391689|6072a0b5] (00+14/14) Accurately ripped
 07     [50dfc364|52632a01] (00+14/14) Accurately ripped
 08     [43f4190a|ac208a29] (00+14/14) Accurately ripped
 09     [a496d263|cdbe1890] (00+14/14) Accurately ripped
 10     [38f996fa|e0c37857] (00+14/14) Accurately ripped
 11     [75a326f3|e906d5a5] (00+14/14) Accurately ripped
 12     [65676fef|ae69c2da] (00+14/14) Accurately ripped

Track Peak [ CRC32  ] [W/O NULL] [  LOG   ]
 --   97.0 [79CA564D] [521BDF2A]   CRC32   
 01   58.0 [39929DC3] [A1F79657]           
 02   96.4 [C2247172] [D7752A6F]           
 03   72.2 [15C252C7] [312A194B]           
 04   64.5 [0B5E2EF6] [12C98ACC]           
 05   93.9 [14501B11] [CA51FF68]           
 06   65.6 [4650FE1E] [86F83D66]           
 07   53.9 [D4C9E563] [6858F8E9]           
 08   78.6 [91F4BB35] [4840F461]           
 09   97.0 [B60F0247] [6AAE4F00]           
 10   95.8 [2B857562] [F28995F3]           
 11   95.2 [F516B114] [DA8202A4]           
 12   64.9 [6162CAB1] [39A59263]           



Create a new paste based on this one


Comments: